Подписывайся на наш канал в Telegram https://t.me/torrentok и получи доступ к торрентам без ограничений!
.
Авторизация | Регистрация
torrent123.club


Мидуэй / Midway (2019) BDRip [H.264 / 1080p-LQ] [hand made 16:9] торрент скачать бесплатно

Дата: 25-02-2020, 05:01 | .torrent скачали: 4

Мидуэй / Midway (2019) BDRip [H.264 / 1080p-LQ] [hand made 16:9]Производство: США, Гонконг, Канада, Китай/RuYi Media
Жанр: Военный, боевик, история
Режиссер: Роланд Эммерих

Актеры
Эд Скрейн, Патрик Уилсон, Вуди Харрельсон, Люк Эванс, Мэнди Мур, Люк Клеинтенк, Дэннис Куэйд, Аарон Экхарт, Киан Джонсон, Ник Джонас

Описание

История одного из самых масштабных и стратегически важных морских сражений на Тихом океане Второй мировой войны. После разгрома японской авиацией большей части флота США в Перл-Харборе до этого придерживавшаяся нейтралитета Америка вступает в войну. В июне 1942 года остатки американского флота под командованием адмирала Честера Нимица сражаются с Императорским флотом Японии у атолла Мидуэй.

Возраст: 16+ (зрителям, достигшим 16 лет)
Рейтинг MPAA: PG-13 (детям до 13 лет просмотр нежелателен)
Дата мировой премьеры: 24 октября 2019
Дата российской премьеры: 14 ноября 2019, Централ Партнершип
Релиз от: SergeyAms
Продолжительность: 02: 18: 24
Качество видео: BDRip
Перевод: Дублированный (iTunes)
Субтитры: Русские (форс.), английские (полные)
Видео: AVC/H.264, 1920x1080, ~10 Mbps
Аудио #1: AC3, 6 ch, 384 Kbps - Русский
Аудио #2: AC3, 6 ch, 448 Kbps - Английский
Unique ID : 249517241432798772439607746519612136064 (0xBBB745CF1E6C2F71BE923BD05BF21A80)
Complete name : D: TempNNMMidway.2019.1080p.FS.mkv
Format : Matroska
Format version : Version 4/Version 2
File size : 10.5 GiB
Duration : 2h 18mn
Overall bit rate : 10.8 Mbps
Movie name : Midway 2019
Encoded date : UTC 2020-02-24 03: 22: 10
Writing application : mkvmerge v9.8.0 (\'Kuglblids\') 64bit
Writing library : libebml v1.3.4 + libmatroska v1.4.5
Video
ID : 1
Format : AVC
Format/Info : Advanced Video Codec
Format profile : High@L4.1
Format settings, CABAC : Yes
Format settings, ReFrames : 4 frames
Codec ID : V_MPEG4/ISO/AVC
Duration : 2h 18mn
Bit rate : 10 000 Kbps
Width : 1 920 pixels
Height : 1 080 pixels
Display aspect ratio : 16: 9
Frame rate mode : Constant
Frame rate : 23.976 fps
Color space : YUV
Chroma subsampling : 4: 2: 0
Bit depth : 8 bits
Scan type : Progressive
Bits/(Pixel*Frame) : 0.201
Stream size : 9.45 GiB (90%)
Writing library : x264 core 157 r2935 545de2f
Encoding settings : cabac=1/ref=4/deblock=1: -2: -2/analyse=0x3: 0x113/me=umh/subme=10/psy=1/psy_rd=1.05: 0.10/mixed_ref=1/me_range=32/chroma_me=1/trellis=2/8x8dct=1/cqm=0/deadzone=21, 11/fast_pskip=0/chroma_qp_offset=-3/threads=5/lookahead_threads=1/sliced_threads=0/nr=0/decimate=0/interlaced=0/bluray_compat=0/constrained_intra=0/bframes=6/b_pyramid=2/b_adapt=2/b_bias=0/direct=1/weightb=1/open_gop=0/weightp=2/keyint=240/keyint_min=24/scenecut=40/intra_refresh=0/rc=2pass/mbtree=0/bitrate=10000/ratetol=1.0/qcomp=0.70/qpmin=3/qpmax=69/qpstep=4/cplxblur=20.0/qblur=0.5/ip_ratio=1.40/pb_ratio=1.30/aq=2: 1.00
Default : Yes
Forced : No
Audio #1
ID : 2
Format : AC-3
Format/Info : Audio Coding 3
Mode extension : CM (complete main)
Format settings, Endianness : Big
Codec ID : A_AC3
Duration : 2h 18mn
Bit rate mode : Constant
Bit rate : 384 Kbps
Channel(s) : 6 channels
Channel positions : Front: L C R, Side: L R, LFE
Sampling rate : 48.0 KHz
Bit depth : 16 bits
Compression mode : Lossy
Stream size : 380 MiB (4%)
Language : Russian
Default : Yes
Forced : No
Audio #2
ID : 3
Format : AC-3
Format/Info : Audio Coding 3
Mode extension : CM (complete main)
Format settings, Endianness : Big
Codec ID : A_AC3
Duration : 2h 18mn
Bit rate mode : Constant
Bit rate : 448 Kbps
Channel(s) : 6 channels
Channel positions : Front: L C R, Side: L R, LFE
Sampling rate : 48.0 KHz
Bit depth : 16 bits
Compression mode : Lossy
Stream size : 444 MiB (4%)
Language : English
Default : No
Forced : No
Text #1
ID : 4
Format : UTF-8
Codec ID : S_TEXT/UTF8
Codec ID/Info : UTF-8 Plain Text
Title : Forced
Language : Russian
Default : Yes
Forced : Yes
Text #2
ID : 5
Format : UTF-8
Codec ID : S_TEXT/UTF8
Codec ID/Info : UTF-8 Plain Text
Title : Full
Language : English
Default : No
Forced : No
Menu
00: 00: 00.000 : en: Глава 01
00: 06: 55.832 : en: Глава 02
00: 13: 53.207 : en: Глава 03
00: 20: 24.765 : en: Глава 04
00: 27: 03.330 : en: Глава 05
00: 32: 55.182 : en: Глава 06
00: 40: 35.975 : en: Глава 07
00: 46: 57.732 : en: Глава 08
00: 53: 50.769 : en: Глава 09
01: 01: 12.544 : en: Глава 10
01: 07: 55.113 : en: Глава 11
01: 14: 48.734 : en: Глава 12
01: 21: 41.105 : en: Глава 13
01: 27: 32.038 : en: Глава 14
01: 35: 09.537 : en: Глава 15
01: 42: 11.125 : en: Глава 16
01: 48: 30.671 : en: Глава 17
01: 54: 44.127 : en: Глава 18
02: 02: 23.002 : en: Глава 19
02: 09: 12.787 : en: Глава 20

Скриншоты для ознакомления



Все одноименные релизы в Клубе
Время раздачи: 24/7
Рейтинг →
 (голосов: 1, оценка 4/5, голосовать можно 1 раз )

Другие торренты по теме:

  • Мидуэй / Midway (1976) BDRip [H.264 / 720p-LQ] скачать через торрент бесплатно
  • Мидуэй / Midway (2019) CAMRip [MVO] [AD]
  • Мидуэй / Midway (2019) CAMRip [H.264 / 720p-LQ]
  • Мидуэй / Midway (2019) WEBRip [H.264 / 1080p-LQ] [Line]
  • Мидуэй / Midway (2019) WEB-DLRip [H.265] [10-bit] [Line]
  • Мидуэй / Midway (1976) HDRip [H.265] [10-bit]
  • Мидуэй / Midway (2019) BDRip [H.264 / 1080p] [EN / EN Sub] [PR]
  • Мидуэй / Midway (2019) BDRip [H.265 / 1080p] [10-bit] [US Transfer] [PR]


    • Комментарии (0):

      Информация

      Информация

        Посетители, находящиеся в группе Гости, не могут оставлять комментарии в данной новости.