Подписывайся на наш канал в Telegram https://t.me/torrentok и получи доступ к торрентам без ограничений!
.
Авторизация | Регистрация
torrent123.club


Ангелы Чарли / Charlies Angels (2019) BDRip [H.264 / 1080p-LQ] [hand made 16:9] торрент скачать бесплатно

Дата: 5-03-2020, 05:01 | .torrent скачали: 3

Ангелы Чарли / Charlies Angels (2019) BDRip [H.264 / 1080p-LQ] [hand made 16:9]Производство: США/Columbia Pictures, 2.0 Entertainment
Жанр: Боевик, Комедия, Приключения
Режиссер: Элизабет Бэнкс

Актеры
Кристен Стюарт, Наоми Скотт, Элла Балинска, Сэм Клафлин, Ноа Сентинео, Элизабет Бэнкс, Джимон Хонсу, Патрик Стюарт, Луис Херардо Мендес, Джонатан Такер

Описание

Частное детективное агентство Таунсенд, возглавляемое таинственным Чарли, открывает свои офисы по всему миру, и теперь в разных уголках земного шара команды суперпрофессиональных Ангелов под началом Босли обеспечивают покой и безопасность своим клиентам.

Возраст: 16+ (зрителям, достигшим 16 лет)
Рейтинг MPAA: PG-13 (детям до 13 лет просмотр нежелателен)
Дата мировой премьеры: 11 ноября 2019
Дата российской премьеры: 14 ноября 2019, WDSSPR
Релиз от: SergeyAms
Продолжительность: 01: 57: 53
Качество видео: BDRip
Перевод: Дублированный (iTunes)
Субтитры: Русские (форс., полные), английские (форс., полные)
Видео: AVC/H.264, 1920x1080, ~5 Mbps
Аудио #1: AC3, 6 ch, 384 Kbps - русский
Аудио #2: AC3, 6 ch, 640 Kbps - английский
Unique ID : 254877024119878485415321766487971176247 (0xBFBF877F79D5E51C0266FE6BA6619F37)
Complete name : D: TempNNMАнгелы Чарли.2019.1080p.FS.mkv
Format : Matroska
Format version : Version 4/Version 2
File size : 4.97 GiB
Duration : 1h 57mn
Overall bit rate : 6 029 Kbps
Movie name : Charlie\'s Angels BDRemux 1080p
Writing library : Lavf57.71.100
Video
ID : 1
Format : AVC
Format/Info : Advanced Video Codec
Format profile : High@L4.1
Format settings, CABAC : Yes
Format settings, ReFrames : 4 frames
Codec ID : V_MPEG4/ISO/AVC
Duration : 1h 57mn
Bit rate : 5 000 Kbps
Width : 1 920 pixels
Height : 1 080 pixels
Display aspect ratio : 16: 9
Frame rate mode : Constant
Frame rate : 23.976 fps
Color space : YUV
Chroma subsampling : 4: 2: 0
Bit depth : 8 bits
Scan type : Progressive
Bits/(Pixel*Frame) : 0.101
Stream size : 4.02 GiB (81%)
Writing library : x264 core 157 r2935 545de2f
Encoding settings : cabac=1/ref=4/deblock=1: -2: -2/analyse=0x3: 0x113/me=umh/subme=10/psy=1/psy_rd=1.05: 0.15/mixed_ref=1/me_range=24/chroma_me=1/trellis=2/8x8dct=1/cqm=0/deadzone=21, 11/fast_pskip=0/chroma_qp_offset=-3/threads=5/lookahead_threads=1/sliced_threads=0/nr=0/decimate=0/interlaced=0/bluray_compat=0/constrained_intra=0/bframes=6/b_pyramid=2/b_adapt=2/b_bias=0/direct=1/weightb=0/open_gop=0/weightp=2/keyint=240/keyint_min=24/scenecut=40/intra_refresh=0/rc=2pass/mbtree=0/bitrate=5000/ratetol=1.0/qcomp=0.70/qpmin=3/qpmax=69/qpstep=4/cplxblur=20.0/qblur=0.5/ip_ratio=1.40/pb_ratio=1.30/aq=2: 1.00
Language : English
Default : Yes
Forced : No
Audio #1
ID : 2
Format : AC-3
Format/Info : Audio Coding 3
Mode extension : CM (complete main)
Format settings, Endianness : Big
Codec ID : A_AC3
Duration : 1h 57mn
Bit rate mode : Constant
Bit rate : 384 Kbps
Channel(s) : 6 channels
Channel positions : Front: L C R, Side: L R, LFE
Sampling rate : 48.0 KHz
Bit depth : 16 bits
Compression mode : Lossy
Stream size : 324 MiB (6%)
Title : Russian Dub iTunes
Language : Russian
Default : Yes
Forced : No
Audio #2
ID : 3
Format : AC-3
Format/Info : Audio Coding 3
Mode extension : CM (complete main)
Format settings, Endianness : Big
Codec ID : A_AC3
Duration : 1h 57mn
Bit rate mode : Constant
Bit rate : 640 Kbps
Channel(s) : 6 channels
Channel positions : Front: L C R, Side: L R, LFE
Sampling rate : 48.0 KHz
Bit depth : 16 bits
Compression mode : Lossy
Stream size : 540 MiB (11%)
Title : English Original
Language : English
Default : No
Forced : No
Text #1
ID : 4
Format : UTF-8
Codec ID : S_TEXT/UTF8
Codec ID/Info : UTF-8 Plain Text
Title : Russian forced
Language : Russian
Default : Yes
Forced : No
Text #2
ID : 5
Format : UTF-8
Codec ID : S_TEXT/UTF8
Codec ID/Info : UTF-8 Plain Text
Title : Russian full
Language : Russian
Default : No
Forced : No
Text #3
ID : 6
Format : UTF-8
Codec ID : S_TEXT/UTF8
Codec ID/Info : UTF-8 Plain Text
Title : English forced
Language : English
Default : No
Forced : No
Text #4
ID : 7
Format : UTF-8
Codec ID : S_TEXT/UTF8
Codec ID/Info : UTF-8 Plain Text
Title : English full
Language : English
Default : No
Forced : No
Menu
00: 00: 00.000 : : Chapter 1
00: 09: 49.297 : : Chapter 2
00: 16: 13.222 : : Chapter 3
00: 25: 51.425 : : Chapter 4
00: 31: 15.457 : : Chapter 5
00: 36: 58.758 : : Chapter 6
00: 43: 18.554 : : Chapter 7
00: 46: 01.926 : : Chapter 8
00: 50: 49.213 : : Chapter 9
00: 54: 32.936 : : Chapter 10
01: 03: 11.371 : : Chapter 11
01: 10: 46.868 : : Chapter 12
01: 19: 37.523 : : Chapter 13
01: 30: 10.238 : : Chapter 14
01: 39: 54.322 : : Chapter 15
01: 44: 46.780 : : Chapter 16

Скриншоты для ознакомления



Все одноименные релизы в Клубе
Время раздачи: 24/7 (мультитрекер)
Рейтинг →
 (голосов: 1, оценка 4/5, голосовать можно 1 раз )

Другие торренты по теме:

  • Ангелы Чарли / Charlies Angels (2000) HDRip [H.264] [Расширенная версия]
  • Ангелы Чарли / Charlies Angels (2011) WEB-DLRip (сезон 1, серии 1-8 из 8) SET
  • Ангелы Чарли / Charlies Angels (2000) UHD BDRemux [H.265 / 2160p] [4K, HDR, 10-bit]
  • Brian Tyler - Charlies Angels / Ангелы Чарли (Original Motion Picture Score) (2019) [FLAC|Lossless|WEB-DL|tracks]<Soundtrack>
  • Brian Tyler, VA - Charlies Angels / Ангелы Чарли (Original Score + Original Soundtrack) (2019) [MP3|320 кб / с] <Soundtrack, Score>
  • Brian Tyler, VA - Charlies Angels / Ангелы Чарли (Original Score + Original Soundtrack) (2019) [FLAC2.0|48 / 44.1 / 24|tracks|WEB-DL] <Soundtrack, Score>
  • Ангелы Чарли / Charlies Angels (2019) CAMRip [AD]
  • Ангелы Чарли / Charlies Angels (2019) WEB-DL [H.264 / 1080p]


    • Комментарии (0):

      Информация

      Информация

        Посетители, находящиеся в группе Гости, не могут оставлять комментарии в данной новости.