Подписывайся на наш канал в Telegram https://t.me/torrentok и получи доступ к торрентам без ограничений!
.
Авторизация | Регистрация
torrent123.club
Торрент трекер | Скачать торрент | Скачать Через Торрент | Скачать торрент бесплатно | Скачать торрент без регистрации Другое торрент скачать Это пистолет у тебя в кармане / Is That a Gun in Your Pocket (2016) WEB-DLRip [H.264 / 1080p-LQ] [MVO] [AD] торрент скачать бесплатно


    Это пистолет у тебя в кармане / Is That a Gun in Your Pocket (2016) WEB-DLRip [H.264 / 1080p-LQ] [MVO] [AD] торрент скачать бесплатно

    Дата: 7-03-2020, 05:00 | .torrent скачали: 0

    Это пистолет у тебя в кармане / Is That a Gun in Your Pocket (2016) WEB-DLRip [H.264 / 1080p-LQ] [MVO] [AD]Производство: США/The Vault
    Жанр: комедия
    Режиссер: Мэтт Купер
    Продюсер: Мэтт Купер, Лори Миллер, Дэвид Купер

    Актеры
    Андреа Андерс, Мэтт Пассмор, Клорис Личмен, Кэтрин МакНамара, Джон Майкл Хиггинс, Оратио Санс, Лорен Боулз, Джон Хёрд, Кристин Эстабрук, Кевин Конуэй

    Описание

    Больше своих женщин мужчины Рокфорда, любили только свои пушки, пока один инцидент с применением оружия в окрестностях местной школы не заставил домохозяйку Дженну переосмыслить повсеместную одержимость оружием. К большому огорчению своего мужа, Дженна основывает движение против ношения оружия. Все члены движения должны воздерживаться от секса с их супругами до тех пор, пока в Рокфорде не будет сдан последний пистолет.

    Возраст: 16+ (зрителям, достигшим 16 лет)
    Рейтинг MPAA: R (лицам до 17 лет обязательно присутствие взрослого)
    Релиз от: winchester00100010
    Продолжительность: 01: 37: 41
    Качество видео: WEB-DLRip
    Перевод: Многоголосый любительский (Синема УС)
    Субтитры: отсутствуют
    Реклама: Присутствуют аудио и видео вставки рекламы
    Видео: AVC/H.264, 1916х1032, ~5024 kbps
    Аудио: AC3, 2 ch, 384 kbps - Русский (MVO)
    Общее
    Уникальный идентификатор : 236322064068882659694384248511238397967 (0xB1C9F956294635D0A6B57A2662CE600F)
    Полное имя : C: Мои раздачи фильмов сериаловIs.That.a.Gun.in.Your.Pocket.2016.WEB-DL.1080p.mkv
    Формат : Matroska
    Версия формата : Version 2
    Размер файла : 3, 69 Гбайт
    Продолжительность : 1 ч. 37 м.
    Режим общего битрейта : Переменный
    Общий поток : 5409 Кбит/сек
    Дата кодирования : UTC 2017-04-04 12: 27: 40
    Программа кодирования : mkvmerge v8.3.0 (\'Over the Horizon\') 64bit
    Библиотека кодирования : libebml v1.3.1 + libmatroska v1.4.2
    Видео
    Идентификатор : 1
    Формат : AVC
    Формат/Информация : Advanced Video Codec
    Профиль формата : High@L4
    Настройки формата : CABAC/4 Ref Frames
    Параметр CABAC формата : Да
    Параметр RefFrames формата : 4 кадра
    Идентификатор кодека : V_MPEG4/ISO/AVC
    Продолжительность : 1 ч. 37 м.
    Вид битрейта : Переменный
    Битрейт : 5024 Кбит/сек
    Максимальный битрейт : 5500 Кбит/сек
    Ширина : 1916 пикселей
    Высота : 1032 пикселя
    Соотношение сторон : 1, 85: 1
    Режим частоты кадров : Постоянный
    Частота кадров : 23, 976 (24000/1001) кадра/сек
    Стандарт вещания : Component
    Цветовое пространство : YUV
    Субдискретизация насыщенности : 4: 2: 0
    Битовая глубина : 8 бит
    Тип развёртки : Прогрессивная
    Бит/(Пиксели*Кадры) : 0.106
    Размер потока : 3, 43 Гбайт (93%)
    Default : Да
    Forced : Нет
    Цветовой диапазон : Limited
    Основные цвета : BT.709
    Характеристики трансфера : BT.709
    Коэффициенты матрицы : BT.709
    Аудио
    Идентификатор : 2
    Формат : AC-3
    Формат/Информация : Audio Coding 3
    Коммерческое название : Dolby Digital
    Идентификатор кодека : A_AC3
    Продолжительность : 1 ч. 37 м.
    Вид битрейта : Постоянный
    Битрейт : 384 Кбит/сек
    Каналы : 2 канала
    ChannelLayout : L R
    Частота : 48, 0 КГц
    Частота кадров : 31, 250 кадров/сек (1536 SPF)
    Метод сжатия : С потерями
    Размер потока : 268 Мбайт (7%)
    ServiceKind/String : Complete Main
    Default : Да
    Forced : Нет

    Скриншоты для ознакомления


    Все одноименные релизы в Клубе
    Время раздачи: с 12: 00 до 00: 00 по МСК (до появления первых 3-5 скачавших), также могу уйти с раздачи на некоторое время в любой момент
    Рейтинг →
     (голосов: 1, оценка 3/5, голосовать можно 1 раз )

    Другие торренты по теме:

  • Это пистолет у тебя в кармане / Is That a Gun in Your Pocket (2016) WEB-DL [H.264 / 1080p-LQ] [EN / EN Sub]
  • Это пистолет у тебя в кармане / Is That a Gun in Your Pocket (2016) WEB-DLRip [MVO] [AD]


    • Комментарии (0):

      Информация

      Информация

        Посетители, находящиеся в группе Гости, не могут оставлять комментарии в данной новости.