Подписывайся на наш канал в Telegram https://t.me/torrentok и получи доступ к торрентам без ограничений!
.
Авторизация | Регистрация
torrent123.club
Торрент трекер | Скачать торрент | Скачать Через Торрент | Скачать торрент бесплатно | Скачать торрент без регистрации Другое торрент скачать Джуманджи: Новый уровень / Jumanji: The Next Level (2019) BDRip [H.264 / 1080p-LQ] [hand made 16:9] торрент скачать бесплатно


    Джуманджи: Новый уровень / Jumanji: The Next Level (2019) BDRip [H.264 / 1080p-LQ] [hand made 16:9] торрент скачать бесплатно

    Дата: 7-03-2020, 05:00 | .torrent скачали: 2

    Джуманджи: Новый уровень / Jumanji: The Next Level (2019) BDRip [H.264 / 1080p-LQ] [hand made 16:9]Производство: США/7 Bucks Productions, Hartbeat Productions
    Жанр: фэнтези, боевик, комедия, приключения
    Режиссер: Джейк Кэздан
    Продюсер: Дэни Гарсиа, Дуэйн Джонсон, Джейк Кэздан

    Актеры
    Дуэйн Джонсон, Джек Блэк, Кевин Харт, Карен Гиллан, Ник Джонас, Аквафина, Риз Дэрби, Дэнни ДеВито, Дэнни Гловер, Морган Тернер

    Описание

    Всё начинается после того, как одному из приятелей срочно понадобилась помощь. Но вот только ради того, чтобы выручить друга, все остальные были вынуждены опять вернуться в игру. Однако ребята были довольно сильно поражены, когда им стало известно, что правила Джуманджи изменились и теперь всё идет наперекосяк. Теперь, чтобы попытаться выжить, друзьям предстоит отправиться по всем неизведанным страшным уголкам игры - от засушливой пустыни до заснеженных гор.

    Возраст: 12+ (зрителям, достигшим 12 лет)
    Рейтинг MPAA: PG-13 (детям до 13 лет просмотр нежелателен)
    Дата мировой премьеры: 4 декабря 2019
    Дата российской премьеры: 12 декабря 2019
    Релиз от: SergeyAms
    Продолжительность: 02: 03: 10
    Качество видео: BDRip
    Перевод: Дублированный (iTunes)
    Субтитры: Русские (форс., полные), английские (полные)
    Видео: AVC/H.264, 1920x1080, ~6000 Kbps
    Аудио #1: AC3, 6 ch, 384 Kbps - Русский
    Аудио #2: AC3, 6 ch, 640 Kbps - Английский
    Unique ID : 178376157654830809553654409905748204292 (0x8631FF9328B262B1A941FD3A9E425B04)
    Complete name : D: TempNNMДжуманджи.2019.1080p.FS.mkv
    Format : Matroska
    Format version : Version 4/Version 2
    File size : 6.04 GiB
    Duration : 2h 3mn
    Overall bit rate : 7 026 Kbps
    Movie name : Jumanji The Next Level 2019
    Encoded date : UTC 2020-03-06 09: 29: 30
    Writing application : mkvmerge v9.8.0 (\'Kuglblids\') 64bit
    Writing library : libebml v1.3.4 + libmatroska v1.4.5
    Video
    ID : 1
    Format : AVC
    Format/Info : Advanced Video Codec
    Format profile : High@L4.1
    Format settings, CABAC : Yes
    Format settings, ReFrames : 4 frames
    Codec ID : V_MPEG4/ISO/AVC
    Duration : 2h 3mn
    Bit rate : 6 000 Kbps
    Width : 1 920 pixels
    Height : 1 080 pixels
    Display aspect ratio : 16: 9
    Frame rate mode : Constant
    Frame rate : 23.976 fps
    Color space : YUV
    Chroma subsampling : 4: 2: 0
    Bit depth : 8 bits
    Scan type : Progressive
    Bits/(Pixel*Frame) : 0.121
    Stream size : 5.04 GiB (83%)
    Writing library : x264 core 157 r2935 545de2f
    Encoding settings : cabac=1/ref=4/deblock=1: -2: -2/analyse=0x3: 0x113/me=umh/subme=11/psy=1/psy_rd=1.05: 0.15/mixed_ref=1/me_range=24/chroma_me=1/trellis=2/8x8dct=1/cqm=0/deadzone=21, 11/fast_pskip=0/chroma_qp_offset=-3/threads=5/lookahead_threads=1/sliced_threads=0/nr=0/decimate=0/interlaced=0/bluray_compat=0/constrained_intra=0/bframes=8/b_pyramid=2/b_adapt=2/b_bias=0/direct=1/weightb=0/open_gop=0/weightp=2/keyint=240/keyint_min=24/scenecut=40/intra_refresh=0/rc=2pass/mbtree=0/bitrate=6000/ratetol=1.0/qcomp=0.70/qpmin=3/qpmax=69/qpstep=4/cplxblur=20.0/qblur=0.5/ip_ratio=1.40/pb_ratio=1.30/aq=2: 1.00
    Default : Yes
    Forced : No
    Audio #1
    ID : 2
    Format : AC-3
    Format/Info : Audio Coding 3
    Mode extension : CM (complete main)
    Format settings, Endianness : Big
    Codec ID : A_AC3
    Duration : 2h 3mn
    Bit rate mode : Constant
    Bit rate : 384 Kbps
    Channel(s) : 6 channels
    Channel positions : Front: L C R, Side: L R, LFE
    Sampling rate : 48.0 KHz
    Bit depth : 16 bits
    Compression mode : Lossy
    Stream size : 338 MiB (5%)
    Language : Russian
    Default : Yes
    Forced : No
    Audio #2
    ID : 3
    Format : AC-3
    Format/Info : Audio Coding 3
    Mode extension : CM (complete main)
    Format settings, Endianness : Big
    Codec ID : A_AC3
    Duration : 2h 3mn
    Bit rate mode : Constant
    Bit rate : 640 Kbps
    Channel(s) : 6 channels
    Channel positions : Front: L C R, Side: L R, LFE
    Sampling rate : 48.0 KHz
    Bit depth : 16 bits
    Compression mode : Lossy
    Stream size : 564 MiB (9%)
    Language : English
    Default : No
    Forced : No
    Text #1
    ID : 4
    Format : UTF-8
    Codec ID : S_TEXT/UTF8
    Codec ID/Info : UTF-8 Plain Text
    Title : Forced
    Language : Russian
    Default : Yes
    Forced : Yes
    Text #2
    ID : 5
    Format : UTF-8
    Codec ID : S_TEXT/UTF8
    Codec ID/Info : UTF-8 Plain Text
    Title : Full
    Language : Russian
    Default : No
    Forced : No
    Text #3
    ID : 6
    Format : UTF-8
    Codec ID : S_TEXT/UTF8
    Codec ID/Info : UTF-8 Plain Text
    Title : Full
    Language : English
    Default : No
    Forced : No
    Menu
    00: 00: 00.000 : en: Chapter01
    00: 09: 18.349 : en: Chapter02
    00: 17: 40.476 : en: Chapter03
    00: 23: 10.681 : en: Chapter04
    00: 31: 12.287 : en: Chapter05
    00: 38: 19.130 : en: Chapter06
    00: 42: 39.265 : en: Chapter07
    00: 48: 52.972 : en: Chapter08
    00: 57: 11.428 : en: Chapter09
    01: 06: 03.001 : en: Chapter10
    01: 13: 16.142 : en: Chapter11
    01: 21: 29.093 : en: Chapter12
    01: 28: 33.725 : en: Chapter13
    01: 32: 39.512 : en: Chapter14
    01: 37: 05.403 : en: Chapter15
    01: 45: 00.586 : en: Chapter16

    Скриншоты для ознакомления



    Все одноименные релизы в Клубе
    Время раздачи: 24/7 (мультитрекер)
    Рейтинг →
     (голосов: 1, оценка 4/5, голосовать можно 1 раз )

    Другие торренты по теме:

  • Джуманджи: Новый уровень / Jumanji: The Next Level (2019) TS [MVO] [AD]
  • Джуманджи: Новый уровень / Jumanji: The Next Level (2019) WEBRip [H.264 / 1080p-LQ] [Line, AD]
  • Джуманджи: Новый уровень / Jumanji: The Next Level (2019) WEBRip [H.264 / 720p-LQ] [Line]
  • Джуманджи: Новый уровень / Jumanji: The Next Level (2019) WEBRip [H.264 / 1080p-LQ] [Line]
  • Джуманджи: Новый уровень / Jumanji: The Next Level (2019) WEBRip [Line]
  • Джуманджи: Новый уровень / Jumanji: The Next Level (2019) WEBRip [H.264 / 1080p-LQ] [Line]
  • Джуманджи: Новый уровень / Jumanji: The Next Level (2019) HDRip [Line]
  • Джуманджи: Новый уровень / Jumanji: The Next Level (2019) BDRip [H.264 / 1080p] [Line] [PR]


    • Комментарии (0):

      Информация

      Информация

        Посетители, находящиеся в группе Гости, не могут оставлять комментарии в данной новости.