Подписывайся на наш канал в Telegram https://t.me/torrentok и получи доступ к торрентам без ограничений!
.
Авторизация | Регистрация
torrent123.club


Ультиматум Борна / The Bourne Ultimatum (2007) HybridRip [H.264 / 1080p-LQ] [Open Matte] торрент скачать бесплатно

Дата: 14-03-2020, 05:00 | .torrent скачали: 0

Ультиматум Борна / The Bourne Ultimatum (2007) HybridRip [H.264 / 1080p-LQ] [Open Matte]Производство: США, Германия, Франция, Испания/Universal Pictures
Жанр: боевик, триллер, детектив
Режиссер: Пол Гринграсс

Актеры
Мэтт Дэймон, Джулия Стайлз, Дэвид Стрэтэйрн, Скотт Гленн, Пэдди Консидайн, Эдгар Рамирес, Альберт Финни, Джоан Аллен

Описание

Он хотел одного — исчезнуть. Вместо этого за Борном теперь охотятся люди, которые сделали его таким, какой он есть. Он потерял память и человека, которого любил. Но его не удается сдержать даже новому поколению профессиональных убийц. У него только одна цель: вернуться к началу и узнать, кем он был, Джейсон Борн.

Возраст: 16+ (зрителям, достигшим 16 лет)
Рейтинг MPAA: PG-13 (детям до 13 лет просмотр нежелателен)
Продолжительность: 01: 55: 13
Качество видео: HybridRip
Перевод: Дублированный, двухголосый профессиональный, авторский
Субтитры: русские, английские
Видео: AVC/H.264, 1920х1080, 23, 976 fps, ~8500 kbps
Аудио 1: AC3, 6 ch, 448 kbps - Русский (DUB)
Аудио 2: AC3, 6 ch, 448 kbps - Русский (DVO Гланц и Королёва)
Аудио 3: AC3, 6 ch, 448 kbps - Русский (AVO Гаврилов)
Аудио 4: AC3, 6 ch, 448 kbps - Английский
General
Unique ID : 248443336312609899376959513782531910490 (0xBAE87232E006853FA0FF2736FCA7EB5A)
Complete name : D: Ультиматум Борна (The Bourne Ultimatum) (2007) hybrid.mkv
Format : Matroska
Format version : Version 4
File size : 8.28 GiB
Duration : 1 h 55 min
Overall bit rate : 10.3 Mb/s
Movie name : Ультиматум Борна/The Bourne Ultimatum (2007)
Encoded date : UTC 2010-02-22 21: 41: 31
Writing application : mkvmerge v5.8.0 (\'No Sleep/Pillow\') built on Nov 13 2012 19: 43: 22
Writing library : libebml v1.3.0 + libmatroska v1.4.0
Video
ID : 1
Format : AVC
Format/Info : Advanced Video Codec
Format profile : High@L4.1
Format settings : CABAC/4 Ref Frames
Format settings, CABAC : Yes
Format settings, Reference : 4 frames
Codec ID : V_MPEG4/ISO/AVC
Duration : 1 h 55 min
Bit rate : 8 500 kb/s
Width : 1 920 pixels
Height : 1 080 pixels
Display aspect ratio : 16: 9
Frame rate mode : Constant
Frame rate : 23.976 (24000/1001) FPS
Color space : YUV
Chroma subsampling : 4: 2: 0
Bit depth : 8 bits
Scan type : Progressive
Bits/(Pixel*Frame) : 0.171
Stream size : 6.67 GiB (81%)
Title : Hybrid = Open Matte + Blu-Ray
Writing library : x264 core 148 r2665M a01e339
Encoding settings : cabac=1/ref=4/deblock=1: -3: -3/analyse=0x3: 0x113/me=umh/subme=11/psy=1/psy_rd=1.05: 0.10/mixed_ref=1/me_range=16/chroma_me=1/trellis=2/8x8dct=1/cqm=0/deadzone=21, 11/fast_pskip=0/chroma_qp_offset=-3/threads=5/lookahead_threads=1/sliced_threads=0/nr=0/decimate=1/interlaced=0/bluray_compat=0/constrained_intra=0/bframes=6/b_pyramid=2/b_adapt=2/b_bias=0/direct=3/weightb=1/open_gop=0/weightp=2/keyint=230/keyint_min=23/scenecut=40/intra_refresh=0/rc_lookahead=40/rc=2pass/mbtree=1/bitrate=8500/ratetol=1.0/qcomp=0.70/qpmin=3/qpmax=69/qpstep=4/cplxblur=20.0/qblur=0.5/vbv_maxrate=25000/vbv_bufsize=25000/nal_hrd=none/filler=0/ip_ratio=1.40/aq=2: 1.00
Language : English
Default : Yes
Forced : No
Color range : Limited
Color primaries : BT.709
Transfer characteristics : BT.709
Matrix coefficients : BT.709
Audio #1
ID : 2
Format : AC-3
Format/Info : Audio Coding 3
Commercial name : Dolby Digital
Codec ID : A_AC3
Duration : 1 h 55 min
Bit rate mode : Constant
Bit rate : 448 kb/s
Channel(s) : 6 channels
Channel layout : L R C LFE Ls Rs
Sampling rate : 48.0 kHz
Frame rate : 31.250 FPS (1536 SPF)
Bit depth : 16 bits
Compression mode : Lossy
Stream size : 369 MiB (4%)
Title : DUB дубляж
Language : Russian
Service kind : Complete Main
Default : Yes
Forced : No
Audio #2
ID : 3
Format : AC-3
Format/Info : Audio Coding 3
Commercial name : Dolby Digital
Codec ID : A_AC3
Duration : 1 h 55 min
Bit rate mode : Constant
Bit rate : 448 kb/s
Channel(s) : 6 channels
Channel layout : L R C LFE Ls Rs
Sampling rate : 48.0 kHz
Frame rate : 31.250 FPS (1536 SPF)
Bit depth : 16 bits
Compression mode : Lossy
Stream size : 369 MiB (4%)
Title : DVO Гланц и Королёва
Language : Russian
Service kind : Complete Main
Default : No
Forced : No
Audio #3
ID : 4
Format : AC-3
Format/Info : Audio Coding 3
Commercial name : Dolby Digital
Codec ID : A_AC3
Duration : 1 h 55 min
Bit rate mode : Constant
Bit rate : 448 kb/s
Channel(s) : 6 channels
Channel layout : L R C LFE Ls Rs
Sampling rate : 48.0 kHz
Frame rate : 31.250 FPS (1536 SPF)
Bit depth : 16 bits
Compression mode : Lossy
Stream size : 369 MiB (4%)
Title : AVO Гаврилов
Language : Russian
Service kind : Complete Main
Default : No
Forced : No
Audio #4
ID : 5
Format : AC-3
Format/Info : Audio Coding 3
Commercial name : Dolby Digital
Codec ID : A_AC3
Duration : 1 h 55 min
Bit rate mode : Constant
Bit rate : 448 kb/s
Channel(s) : 6 channels
Channel layout : L R C LFE Ls Rs
Sampling rate : 48.0 kHz
Frame rate : 31.250 FPS (1536 SPF)
Bit depth : 16 bits
Compression mode : Lossy
Stream size : 369 MiB (4%)
Title : original
Language : English
Service kind : Complete Main
Default : No
Forced : No
Text #1
ID : 6
Format : UTF-8
Codec ID : S_TEXT/UTF8
Codec ID/Info : UTF-8 Plain Text
Title : RUS forced
Language : Russian
Default : Yes
Forced : No
Text #2
ID : 7
Format : UTF-8
Codec ID : S_TEXT/UTF8
Codec ID/Info : UTF-8 Plain Text
Title : RUS Netflix
Language : Russian
Default : No
Forced : No
Text #3
ID : 8
Format : UTF-8
Codec ID : S_TEXT/UTF8
Codec ID/Info : UTF-8 Plain Text
Title : ENG SDH
Language : English
Default : No
Forced : No
Menu
00: 00: 00.000 : en: 1. Vague Memories
00: 04: 02.242 : en: 2. Serious Threat
00: 09: 46.127 : en: 3. Full Priority Situation
00: 13: 57.211 : en: 4. Target On The Move
00: 21: 01.844 : en: 5. Take Them Both Out
00: 27: 52.045 : en: 6. Unfinished Business
00: 31: 46.863 : en: 7. After the Source
00: 38: 44.447 : en: 8. Standing Kill Order
00: 43: 51.754 : en: 9. Where It All Started
00: 50: 02.916 : en: 10. Course Deviation
00: 58: 12.781 : en: 11. Run For Your Life
01: 05: 35.765 : en: 12. Confirm Deaths
01: 10: 35.898 : en: 13. It Gets Easier
01: 15: 49.587 : en: 14. Trying to Communicate
01: 20: 36.957 : en: 15. Going Mobile
01: 25: 08.270 : en: 16. Shoot on Sight
01: 31: 34.781 : en: 17. This is Where it Ends
01: 35: 58.294 : en: 18. Remembering Everything
01: 42: 11.834 : en: 19. Yet to Be Found
01: 46: 07.361 : en: 20. End Credits
Рейтинг →
 (голосов: 1, оценка 4/5, голосовать можно 1 раз )

Другие торренты по теме:

  • Ультиматум Борна / The Bourne Ultimatum (2007) HDDVDRip [H.264 / 1080p] скачать через торрент бесплатно
  • Ультиматум Борна / The Bourne Ultimatum (2007) BDRip [H.264] скачать через торрент бесплатно
  • Ультиматум Борна / The Bourne Ultimatum (2007) BDRip [H.264 / 720p] скачать через торрент бесплатно
  • Ультиматум Борна / The Bourne Ultimatum (2007) BDRip [H.265 / 1080p]
  • Ультиматум Борна / The Bourne Ultimatum (2007) UHD BDRemux [H.265 / 2160p] [4K, HDR, 10-bit]
  • Ультиматум Борна / The Bourne Ultimatum (2007) BDRip [H.264 / 1080p] [PR]
  • Ультиматум Борна / The Bourne Ultimatum (2007) BDRip [H.265 / 1080p] [10-bit]


    • Комментарии (0):

      Информация

      Информация

        Посетители, находящиеся в группе Гости, не могут оставлять комментарии в данной новости.