Подписывайся на наш канал в Telegram https://t.me/torrentok и получи доступ к торрентам без ограничений!
.
Авторизация | Регистрация
torrent123.club
Торрент трекер | Скачать торрент | Скачать Через Торрент | Скачать торрент бесплатно | Скачать торрент без регистрации Другое торрент скачать Тёмный рыцарь: Возрождение легенды / The Dark Knight Rises (2012) Hybrid [H.264 / 1080p] [IMAX] торрент скачать бесплатно


    Тёмный рыцарь: Возрождение легенды / The Dark Knight Rises (2012) Hybrid [H.264 / 1080p] [IMAX] торрент скачать бесплатно

    Дата: 16-03-2020, 05:00 | .torrent скачали: 3

    Тёмный рыцарь: Возрождение легенды / The Dark Knight Rises (2012) Hybrid [H.264 / 1080p] [IMAX]Производство: Великобритания, США/Warner Bros., Legendary Pictures, DC Entertainment
    Жанр: фантастика, боевик, триллер, драма, криминал
    Режиссер: Кристофер Нолан

    Актеры
    Кристиан Бэйл, Том Харди, Энн Хэтэуэй, Джозеф Гордон-Левитт, Марион Котийяр, Гари Олдман, Морган Фриман, Майкл Кейн, Мэтью Модайн, Бен Мендельсон

    Описание

    Восемь лет назад Бэтмен растворился в ночи, превратившись из героя в беглеца. Приняв на себя вину за смерть прокурора Харви Дента, он пожертвовал всем. Вместе с комиссаром Гордоном они решили, что так будет лучше для всех. Пока преступность была раздавлена антикриминальным актом Дента, ложь действовала.
    Тем не менее, еще опаснее становится появление нового врага Бэйна, чье лицо закрыто маской. Он разворачивает в Готэме чудовищную деятельность, и это вынуждает Брюса Уэйна выйти из импровизированного изгнания. Однако даже надев свой костюм, Бэтмен может проиграть Бэйну. Но с появлением хитрой воровки по прозвищу Женщина — Кошка с загадочным прошлым всё меняется.

    Возраст: 16+ (зрителям, достигшим 16 лет)
    Рейтинг MPAA: PG-13 (детям до 13 лет просмотр нежелателен)
    Продолжительность: 02: 44: 34
    Качество видео: Hybrid
    Перевод: Дублированный
    Субтитры: русские, английские
    Видео: AVC/H.264, 1920x1080, 23.976 fps, ~11.3 Mbps
    Аудио 1: AC3, 6 ch, 448 Kbps - Русский (DUB)
    Аудио 2: AC3, 6 ch, 448 Kbps - Английский
    General
    Unique ID : 189234145160109330598260415807176406975 (0x8E5D2BB0CBAFCB1AA5ABC666CB7D77BF)
    Complete name : D: The.Dark.Knight.Rises.2012.IMAX.Hybrid.1080p.mkv
    Format : Matroska
    Format version : Version 4
    File size : 14.0 GiB
    Duration : 2 h 44 min
    Overall bit rate : 12.2 Mb/s
    Encoded date : UTC 2019-07-26 16: 25: 54
    Writing application : mkvmerge v8.3.0 (\'Over the Horizon\') 32bit
    Writing library : libebml v1.3.1 + libmatroska v1.4.2
    Video
    ID : 1
    Format : AVC
    Format/Info : Advanced Video Codec
    Format profile : High@L4.1
    Format settings : CABAC/4 Ref Frames
    Format settings, CABAC : Yes
    Format settings, Reference : 4 frames
    Codec ID : V_MPEG4/ISO/AVC
    Duration : 2 h 44 min
    Bit rate : 11.3 Mb/s
    Width : 1 920 pixels
    Height : 1 080 pixels
    Display aspect ratio : 16: 9
    Frame rate mode : Constant
    Frame rate : 23.976 (24000/1001) FPS
    Color space : YUV
    Chroma subsampling : 4: 2: 0
    Bit depth : 8 bits
    Scan type : Progressive
    Bits/(Pixel*Frame) : 0.227
    Stream size : 13.0 GiB (93%)
    Writing library : x264 core 148 r2762 90a61ec
    Encoding settings : cabac=1/ref=4/deblock=1: -3: -3/analyse=0x3: 0x133/me=umh/subme=10/psy=1/psy_rd=1.00: 0.00/mixed_ref=1/me_range=24/chroma_me=1/trellis=2/8x8dct=1/cqm=0/deadzone=21, 11/fast_pskip=1/chroma_qp_offset=-2/threads=6/lookahead_threads=1/sliced_threads=0/nr=0/decimate=1/interlaced=0/bluray_compat=0/constrained_intra=0/bframes=8/b_pyramid=2/b_adapt=2/b_bias=0/direct=3/weightb=1/open_gop=0/weightp=2/keyint=250/keyint_min=25/scenecut=40/intra_refresh=0/rc_lookahead=60/rc=crf/mbtree=0/crf=16.5/qcomp=0.60/qpmin=0/qpmax=69/qpstep=4/vbv_maxrate=62500/vbv_bufsize=78125/crf_max=0.0/nal_hrd=none/filler=0/ip_ratio=1.40/pb_ratio=1.30/aq=1: 0.80
    Language : English
    Default : Yes
    Forced : No
    Audio #1
    ID : 2
    Format : AC-3
    Format/Info : Audio Coding 3
    Commercial name : Dolby Digital
    Codec ID : A_AC3
    Duration : 2 h 44 min
    Bit rate mode : Constant
    Bit rate : 448 kb/s
    Channel(s) : 6 channels
    Channel layout : L R C LFE Ls Rs
    Sampling rate : 48.0 kHz
    Frame rate : 31.250 FPS (1536 SPF)
    Bit depth : 16 bits
    Compression mode : Lossy
    Stream size : 527 MiB (4%)
    Language : Russian
    Service kind : Complete Main
    Default : Yes
    Forced : No
    Audio #2
    ID : 3
    Format : AC-3
    Format/Info : Audio Coding 3
    Commercial name : Dolby Digital
    Codec ID : A_AC3
    Duration : 2 h 44 min
    Bit rate mode : Constant
    Bit rate : 448 kb/s
    Channel(s) : 6 channels
    Channel layout : L R C LFE Ls Rs
    Sampling rate : 48.0 kHz
    Frame rate : 31.250 FPS (1536 SPF)
    Bit depth : 16 bits
    Compression mode : Lossy
    Stream size : 527 MiB (4%)
    Language : English
    Service kind : Complete Main
    Default : No
    Forced : No
    Text #1
    ID : 4
    Format : UTF-8
    Codec ID : S_TEXT/UTF8
    Codec ID/Info : UTF-8 Plain Text
    Duration : 1 h 56 min
    Bit rate : 0 b/s
    Count of elements : 15
    Stream size : 615 Bytes (0%)
    Title : Forced
    Language : Russian
    Default : Yes
    Forced : No
    Text #2
    ID : 5
    Format : UTF-8
    Codec ID : S_TEXT/UTF8
    Codec ID/Info : UTF-8 Plain Text
    Duration : 2 h 43 min
    Bit rate : 64 b/s
    Count of elements : 1847
    Stream size : 77.5 KiB (0%)
    Title : Full - Blu-ray CEE
    Language : Russian
    Default : No
    Forced : No
    Text #3
    ID : 6
    Format : UTF-8
    Codec ID : S_TEXT/UTF8
    Codec ID/Info : UTF-8 Plain Text
    Duration : 2 h 34 min
    Bit rate : 98 b/s
    Count of elements : 1824
    Stream size : 112 KiB (0%)
    Title : Full - Notabenoid
    Language : Russian
    Default : No
    Forced : No
    Text #4
    ID : 7
    Format : UTF-8
    Codec ID : S_TEXT/UTF8
    Codec ID/Info : UTF-8 Plain Text
    Duration : 2 h 34 min
    Bit rate : 57 b/s
    Count of elements : 1778
    Stream size : 64.9 KiB (0%)
    Language : English
    Default : No
    Forced : No
    Рейтинг →
     (голосов: 1, оценка 4/5, голосовать можно 1 раз )

    Другие торренты по теме:

  • Тёмный рыцарь / The Dark Knight (2005-2012) BDRip [H.265 / 1080p] [Трилогия]
  • Тёмный рыцарь: Трилогия / The Dark Knight: Trilogy (2005 / 2008 / 2012) [1080p] BDRip
  • Тёмный рыцарь: Трилогия / The Dark Knight: Trilogy (2005-2012) [H.264 / 720p]
  • Тёмный рыцарь: Возрождение легенды / The Dark Knight Rises (2012) BDRip [H.265 / 1080p-LQ]
  • Тёмный рыцарь / The Dark Knight (2008) BDRip [H.265 / 1080p-LQ] [IMAX]


    • Комментарии (0):

      Информация

      Информация

        Посетители, находящиеся в группе Гости, не могут оставлять комментарии в данной новости.