Подписывайся на наш канал в Telegram https://t.me/torrentok и получи доступ к торрентам без ограничений!
.
Авторизация | Регистрация
torrent123.club
Торрент трекер | Скачать торрент | Скачать Через Торрент | Скачать торрент бесплатно | Скачать торрент без регистрации Другое торрент скачать Звёздные войны: Скайуокер. Восход / Star Wars: Episode IX - The Rise of Skywalker (2019) BDRip [H.264 / 1080p-LQ] [hand made 16:9] торрент скачать бесплатно


    Звёздные войны: Скайуокер. Восход / Star Wars: Episode IX - The Rise of Skywalker (2019) BDRip [H.264 / 1080p-LQ] [hand made 16:9] торрент скачать бесплатно

    Дата: 21-03-2020, 05:00 | .torrent скачали: 1

    Звёздные войны: Скайуокер. Восход / Star Wars: Episode IX - The Rise of Skywalker (2019) BDRip [H.264 / 1080p-LQ] [hand made 16:9]Производство: США, Lucasfilm, Bad Robot, Digital Makeup Group, Walt Disney Pictures
    Жанр: Фантастика, Фэнтези, Боевик, Приключения
    Режиссер: Джей Джей Абрамс
    Продюсер: Джей Джей Абрамс, Нур Дардари, Томми Гормли

    Актеры
    Дэйзи Ридли, Адам Драйвер, Кэрри Фишер, Марк Хэмилл, Джон Бойега, Оскар Айзек, Энтони Дэниелс, Наоми Аки, Донал Глисон, Ричард Э. Грант

    Описание

    Фильм завершает невероятную историю семьи Скайуокеров, длящуюся уже более сорока лет, и обещает дать ответы на все загадки из предыдущих серий. Зрителя ожидают старые и новые герои, уникальные миры, увлекательные путешествия на край Галактики и грандиозный финал фантастической саги.

    Возраст: 16+ (зрителям, достигшим 16 лет)
    Рейтинг MPAA: PG-13 (детям до 13 лет просмотр нежелателен)
    Дата мировой премьеры: 16 декабря 2019
    Дата российской премьеры: 19 декабря 2019, WDSSPR

    Релиз от: SergeyAms
    Продолжительность: 02: 21: 53
    Качество видео: BDRip
    Перевод: Дублированный (iTunes)
    Субтитры: Русские (форс., полные), Английские (полные)
    Видео: AVC/H.264, 1920x1080, ~5 Mbps
    Аудио #1: АC3, 6 ch, 384 Kbps - Русский
    Аудио #2: DTS, 6 ch, 768 Kbps - Английский
    Unique ID : 164695037780871343043572887054545209230 (0x7BE71C496D7931781A12395AF3C2478E)
    Complete name : D: Скайуокер Восход.1080p.FS.mkv
    Format : Matroska
    Format version : Version 4/Version 2
    File size : 6.10 GiB
    Duration : 2h 21mn
    Overall bit rate : 6 160 Kbps
    Movie name : Star Wars Episode IX - The.Rise of Skywalker 2019
    Writing library : Lavf57.71.100
    Video
    ID : 1
    Format : AVC
    Format/Info : Advanced Video Codec
    Format profile : High@L4.1
    Format settings, CABAC : Yes
    Format settings, ReFrames : 4 frames
    Codec ID : V_MPEG4/ISO/AVC
    Duration : 2h 21mn
    Bit rate : 5 000 Kbps
    Width : 1 920 pixels
    Height : 1 080 pixels
    Display aspect ratio : 16: 9
    Frame rate mode : Constant
    Frame rate : 23.976 fps
    Color space : YUV
    Chroma subsampling : 4: 2: 0
    Bit depth : 8 bits
    Scan type : Progressive
    Bits/(Pixel*Frame) : 0.101
    Stream size : 4.84 GiB (79%)
    Writing library : x264 core 157 r2935 545de2f
    Encoding settings : cabac=1/ref=4/deblock=1: -2: -2/analyse=0x3: 0x113/me=umh/subme=9/psy=1/psy_rd=1.05: 0.10/mixed_ref=1/me_range=24/chroma_me=1/trellis=2/8x8dct=1/cqm=0/deadzone=21, 11/fast_pskip=0/chroma_qp_offset=-3/threads=5/lookahead_threads=1/sliced_threads=0/nr=0/decimate=0/interlaced=0/bluray_compat=0/constrained_intra=0/bframes=6/b_pyramid=2/b_adapt=2/b_bias=0/direct=1/weightb=1/open_gop=0/weightp=2/keyint=240/keyint_min=24/scenecut=40/intra_refresh=0/rc=2pass/mbtree=0/bitrate=5000/ratetol=1.0/qcomp=0.70/qpmin=3/qpmax=69/qpstep=4/cplxblur=20.0/qblur=0.5/ip_ratio=1.40/pb_ratio=1.30/aq=2: 1.00
    Language : English
    Default : Yes
    Forced : No
    Audio #1
    ID : 2
    Format : AC-3
    Format/Info : Audio Coding 3
    Mode extension : CM (complete main)
    Format settings, Endianness : Big
    Codec ID : A_AC3
    Duration : 2h 21mn
    Bit rate mode : Constant
    Bit rate : 384 Kbps
    Channel(s) : 6 channels
    Channel positions : Front: L C R, Side: L R, LFE
    Sampling rate : 48.0 KHz
    Bit depth : 16 bits
    Compression mode : Lossy
    Stream size : 390 MiB (6%)
    Title : iTunes
    Language : Russian
    Default : Yes
    Forced : Yes
    Audio #2
    ID : 3
    Format : DTS
    Format/Info : Digital Theater Systems
    Mode : 16
    Format settings, Endianness : Big
    Codec ID : A_DTS
    Duration : 2h 21mn
    Bit rate mode : Constant
    Bit rate : 768 Kbps
    Channel(s) : 6 channels
    Channel positions : Front: L C R, Side: L R, LFE
    Sampling rate : 48.0 KHz
    Bit depth : 16 bits
    Compression mode : Lossy
    Stream size : 779 MiB (12%)
    Title : Original
    Language : English
    Default : Yes
    Forced : No
    Text #1
    ID : 4
    Format : UTF-8
    Codec ID : S_TEXT/UTF8
    Codec ID/Info : UTF-8 Plain Text
    Title : Forced
    Language : Russian
    Default : Yes
    Forced : Yes
    Text #2
    ID : 5
    Format : UTF-8
    Codec ID : S_TEXT/UTF8
    Codec ID/Info : UTF-8 Plain Text
    Title : Full
    Language : Russian
    Default : Yes
    Forced : No
    Text #3
    ID : 6
    Format : UTF-8
    Codec ID : S_TEXT/UTF8
    Codec ID/Info : UTF-8 Plain Text
    Title : Full
    Language : English
    Default : No
    Forced : No
    Menu
    00: 00: 00.000 : : Глава 01
    00: 00: 09.176 : : Глава 02
    00: 01: 40.934 : : Глава 03
    00: 03: 47.811 : : Глава 04
    00: 06: 42.902 : : Глава 05
    00: 08: 26.673 : : Глава 06
    00: 10: 04.896 : : Глава 07
    00: 12: 48.142 : : Глава 08
    00: 13: 54.000 : : Глава 09
    00: 15: 17.416 : : Глава 10
    00: 17: 13.199 : : Глава 11
    00: 19: 25.039 : : Глава 12
    00: 21: 28.579 : : Глава 13
    00: 25: 27.693 : : Глава 14
    00: 27: 14.883 : : Глава 15
    00: 30: 41.548 : : Глава 16
    00: 35: 49.064 : : Глава 17
    00: 41: 37.745 : : Глава 18
    00: 43: 15.259 : : Глава 19
    00: 45: 28.351 : : Глава 20
    00: 48: 24.568 : : Глава 21
    00: 54: 37.566 : : Глава 22
    00: 58: 49.192 : : Глава 23
    01: 02: 54.771 : : Глава 24
    01: 06: 23.104 : : Глава 25
    01: 09: 54.607 : : Глава 26
    01: 13: 07.383 : : Глава 27
    01: 18: 23.616 : : Глава 28
    01: 23: 41.225 : : Глава 29
    01: 27: 02.884 : : Глава 30
    01: 30: 23.126 : : Глава 31
    01: 35: 00.820 : : Глава 32
    01: 38: 47.880 : : Глава 33
    01: 40: 35.863 : : Глава 34
    01: 43: 03.135 : : Глава 35
    01: 45: 27.863 : : Глава 36
    01: 48: 48.188 : : Глава 37
    01: 53: 27.634 : : Глава 38
    01: 55: 30.757 : : Глава 39
    01: 59: 02.969 : : Глава 40
    02: 01: 37.749 : : Глава 41
    02: 05: 20.430 : : Глава 42
    02: 09: 42.692 : : Глава 43
    02: 12: 25.896 : : Глава 44

    Скриншоты для ознакомления



    Все одноименные релизы в Клубе
    Время раздачи: 24/7 (до появления первых 3-5 скачавших)
    Рейтинг →
     (голосов: 1, оценка 3/5, голосовать можно 1 раз )

    Другие торренты по теме:

  • Lucasfilm | Артбук по мультфильму Звёздные войны: Войны клонов / The Art of Star Wars: The Clone Wars (2009) [CBR] [EN]
  • Звёздные Войны: Войны Клонов / Star Wars: The Clone Wars (2020) WEB-DLRip [H.264 / 720p-LQ] (Сезон 7, Серия 1 из 12) LostFilm (Обновляемая)
  • Звёздные войны. Эпизод 5: Империя наносит ответный удар / Star Wars: Episode V - The Empire Strikes Back / Despecialized Edition Theatrical reconstruction HD (1980) BDRip скачать через торрент бесплатно
  • Звёздные войны: Повстанцы / Star Wars: Rebels (2014) WEB-DLRip (Сезон 1, Серий 3 из 16) (LostFilm)
  • Финес и Ферб. Звёздные войны / Phineas and Ferb: Star Wars (2014) WEB-DLRip (ЛанселаП) скачать через торрент бесплатно
  • Звёздные войны: Повстанцы / Star Wars: Rebels (2014) WEB-DLRip [1080p] (Сезон 1, серий 8 из 16) (LostFilm) скачать через торрент бесплатно
  • Звёздные войны: Повстанцы / Star Wars: Rebels (2014) WEB-DLRip (Сезон 1, серий 7 из 16) (Невафильм) (обновляемая)
  • Звёздные войны: Повстанцы 1.0.0 - Официальная игра по мотивам популярного серила [Ru] скачать через торрент бесплатно


    • Комментарии (0):

      Информация

      Информация

        Посетители, находящиеся в группе Гости, не могут оставлять комментарии в данной новости.