Подписывайся на наш канал в Telegram https://t.me/torrentok и получи доступ к торрентам без ограничений!
.
Авторизация | Регистрация
torrent123.club


Прометей / Prometheus (2012) Hybrid [H.264 / 1080p] [Open Matte] торрент скачать бесплатно

Дата: 25-03-2020, 05:01 | .torrent скачали: 0

Прометей / Prometheus (2012) Hybrid [H.264 / 1080p] [Open Matte]Производство: США, Великобритания/Brandywine Productions, Dune Entertainment, Scott Free Productions
Жанр: ужасы, фантастика, триллер, приключения
Режиссер: Ридли Скотт

Актеры
Нуми Рапас, Майкл Фассбендер, Шарлиз Терон, Идрис Эльба, Гай Пирс, Логан Маршалл-Грин, Шон Харрис, Рейф Сполл, Иман Эллиотт, Бенедикт Вонг, Кейт Дики, Патрик Уилсон, Люси Хатчинсон

Описание

В поисках сакрального знания группа ученых отправляется в самые темные и неизведанные чертоги вселенной. Именно там, в отдаленных мирах, находясь на пределе своих умственных и физических возможностей, им предстоит вступить в безжалостную схватку за будущее всего человечества...

Возраст: 16+ (зрителям, достигшим 16 лет)
Рейтинг MPAA: R (лицам до 17 лет обязательно присутствие взрослого)
Продолжительность: 02: 03: 46
Качество видео: Hybrid
Перевод: Дублированный, Профессиональный многоголосый закадровый (Первый канал)
Субтитры: Русские (форсированные + полные), Английские (полные, SDH)
Видео: AVC/H.264, 1920x1080, ~10, 5 Mbps
Аудио 1 : AC3, 6 ch, 448 Kbps - Русский | Дубляж |
Аудио 2 : AC3, 2 ch, 192 Kbps - Русский | MVO Первый канал |
Аудио 3 : AC3, 6 ch, 448 Kbps - Английский | Original |
Общее
Уникальный идентификатор : 26776825550422634645172698741589266778 (0x1425076D7B802848AE8063AF56C9D15A)
Полное имя : F: ВидеоPrometheus (2012) Hybrid 1080p Open Matte.mkv
Формат : Matroska
Версия формата : Version 4
Размер файла : 10, 1 Гбайт
Продолжительность : 2 ч. 3 м.
Общий поток : 11, 6 Мбит/сек
Название фильма : Prometheus (2012) BDRip
Дата кодирования : UTC 2020-03-12 05: 58: 38
Программа кодирования : mkvmerge v42.0.0 (\'Overtime\') 64-bit
Библиотека кодирования : libebml v1.3.10 + libmatroska v1.5.2
Обложка : Yes
Attachments : Cover.jpg
Видео
Идентификатор : 1
Формат : AVC
Формат/Информация : Advanced Video Codec
Профиль формата : High@L4.1
Настройки формата : CABAC/4 Ref Frames
Параметр CABAC формата : Да
Параметр RefFrames формата : 4 кадра
Идентификатор кодека : V_MPEG4/ISO/AVC
Продолжительность : 2 ч. 3 м.
Битрейт : 10, 5 Мбит/сек
Ширина : 1920 пикселей
Высота : 1080 пикселей
Соотношение сторон : 16: 9
Режим частоты кадров : Постоянный
Частота кадров : 23, 976 (24000/1001) кадра/сек
Цветовое пространство : YUV
Субдискретизация насыщенности : 4: 2: 0
Битовая глубина : 8 бит
Тип развёртки : Прогрессивная
Бит/(Пиксели*Кадры) : 0.212
Размер потока : 9, 12 Гбайт (91%)
Библиотека кодирования : x264 core 157 r2935 545de2f
Настройки программы : cabac=1/ref=4/deblock=1: -3: -3/analyse=0x3: 0x133/me=umh/subme=11/psy=1/psy_rd=1.00: 0.00/mixed_ref=1/me_range=32/chroma_me=1/trellis=2/8x8dct=1/cqm=0/deadzone=21, 11/fast_pskip=0/chroma_qp_offset=-2/threads=6/lookahead_threads=1/sliced_threads=0/nr=0/decimate=1/interlaced=0/bluray_compat=0/constrained_intra=0/bframes=10/b_pyramid=2/b_adapt=2/b_bias=0/direct=3/weightb=1/open_gop=0/weightp=2/keyint=240/keyint_min=23/scenecut=40/intra_refresh=0/rc_lookahead=60/rc=crf/mbtree=1/crf=16.0/qcomp=0.60/qpmin=0/qpmax=69/qpstep=4/vbv_maxrate=62500/vbv_bufsize=78125/crf_max=0.0/nal_hrd=none/filler=0/ip_ratio=1.40/aq=1: 1.00
Default : Да
Forced : Нет
Аудио #1
Идентификатор : 2
Формат : AC-3
Формат/Информация : Audio Coding 3
Коммерческое название : Dolby Digital
Идентификатор кодека : A_AC3
Продолжительность : 2 ч. 3 м.
Вид битрейта : Постоянный
Битрейт : 448 Кбит/сек
Каналы : 6 каналов
ChannelLayout : L R C LFE Ls Rs
Частота : 48, 0 КГц
Частота кадров : 31, 250 кадров/сек (1536 SPF)
Метод сжатия : С потерями
Размер потока : 397 Мбайт (4%)
Заголовок : DUB
Язык : Russian
ServiceKind/String : Complete Main
Default : Да
Forced : Нет
Аудио #2
Идентификатор : 3
Формат : AC-3
Формат/Информация : Audio Coding 3
Коммерческое название : Dolby Digital
Идентификатор кодека : A_AC3
Продолжительность : 2 ч. 3 м.
Вид битрейта : Постоянный
Битрейт : 192 Кбит/сек
Каналы : 2 канала
ChannelLayout : L R
Частота : 48, 0 КГц
Частота кадров : 31, 250 кадров/сек (1536 SPF)
Метод сжатия : С потерями
Размер потока : 170 Мбайт (2%)
Заголовок : 1st channel
Язык : Russian
ServiceKind/String : Complete Main
Default : Нет
Forced : Нет
Аудио #3
Идентификатор : 4
Формат : AC-3
Формат/Информация : Audio Coding 3
Коммерческое название : Dolby Digital
Идентификатор кодека : A_AC3
Продолжительность : 2 ч. 3 м.
Вид битрейта : Постоянный
Битрейт : 448 Кбит/сек
Каналы : 6 каналов
ChannelLayout : L R C LFE Ls Rs
Частота : 48, 0 КГц
Частота кадров : 31, 250 кадров/сек (1536 SPF)
Метод сжатия : С потерями
Размер потока : 397 Мбайт (4%)
Заголовок : Original
Язык : English
ServiceKind/String : Complete Main
Default : Нет
Forced : Нет
Текст #1
Идентификатор : 5
Формат : UTF-8
Идентификатор кодека : S_TEXT/UTF8
Идентификатор кодека/Информация : UTF-8 Plain Text
Продолжительность : 4 м. 26 с.
Битрейт : 15 бит/сек
ElementCount : 10
Размер потока : 514 байт (0%)
Заголовок : Forced
Язык : Russian
Default : Да
Forced : Нет
Текст #2
Идентификатор : 6
Формат : UTF-8
Идентификатор кодека : S_TEXT/UTF8
Идентификатор кодека/Информация : UTF-8 Plain Text
Продолжительность : 1 ч. 51 м.
Битрейт : 71 бит/сек
ElementCount : 1364
Размер потока : 58, 3 Кбайт (0%)
Заголовок : BD
Язык : Russian
Default : Нет
Forced : Нет
Текст #3
Идентификатор : 7
Формат : UTF-8
Идентификатор кодека : S_TEXT/UTF8
Идентификатор кодека/Информация : UTF-8 Plain Text
Продолжительность : 1 ч. 53 м.
Битрейт : 63 бит/сек
ElementCount : 994
Размер потока : 52, 9 Кбайт (0%)
Заголовок : Voronine
Язык : Russian
Default : Нет
Forced : Нет
Текст #4
Идентификатор : 8
Формат : UTF-8
Идентификатор кодека : S_TEXT/UTF8
Идентификатор кодека/Информация : UTF-8 Plain Text
Продолжительность : 1 ч. 51 м.
Битрейт : 43 бит/сек
ElementCount : 1408
Размер потока : 35, 8 Кбайт (0%)
Язык : English
Default : Нет
Forced : Нет
Текст #5
Идентификатор : 9
Формат : UTF-8
Идентификатор кодека : S_TEXT/UTF8
Идентификатор кодека/Информация : UTF-8 Plain Text
Продолжительность : 1 ч. 55 м.
Битрейт : 53 бит/сек
ElementCount : 2010
Размер потока : 45, 2 Кбайт (0%)
Заголовок : SDH
Язык : English
Default : Нет
Forced : Нет
Меню
00: 00: 00.000 : en: Chapter 1
00: 05: 13.146 : en: Chapter 2
00: 07: 44.881 : en: Chapter 3
00: 11: 31.524 : en: Chapter 4
00: 15: 09.784 : en: Chapter 5
00: 20: 04.912 : en: Chapter 6
00: 22: 32.810 : en: Chapter 7
00: 27: 43.120 : en: Chapter 8
00: 31: 57.833 : en: Chapter 9
00: 34: 10.840 : en: Chapter 10
00: 37: 53.229 : en: Chapter 11
00: 40: 45.360 : en: Chapter 12
00: 45: 49.330 : en: Chapter 13
00: 48: 47.925 : en: Chapter 14
00: 50: 23.062 : en: Chapter 15
00: 53: 56.400 : en: Chapter 16
00: 56: 32.222 : en: Chapter 17
00: 59: 31.610 : en: Chapter 18
01: 01: 29.185 : en: Chapter 19
01: 04: 17.562 : en: Chapter 20
01: 06: 01.457 : en: Chapter 21
01: 08: 57.884 : en: Chapter 22
01: 11: 13.519 : en: Chapter 23
01: 15: 10.631 : en: Chapter 24
01: 17: 06.038 : en: Chapter 25
01: 25: 02.306 : en: Chapter 26
01: 27: 09.349 : en: Chapter 27
01: 30: 10.363 : en: Chapter 28
01: 32: 43.725 : en: Chapter 29
01: 35: 23.134 : en: Chapter 30
01: 37: 46.861 : en: Chapter 31
01: 40: 46.374 : en: Chapter 32
01: 43: 46.220 : en: Chapter 33
01: 48: 28.794 : en: Chapter 34
01: 52: 08.096 : en: Chapter 35
01: 58: 06.288 : en: Chapter 36
Рейтинг →
 (голосов: 1, оценка 4/5, голосовать можно 1 раз )

Другие торренты по теме:

  • Marc Streitenfeld and Harry Gregson-Williams - Прометей / Prometheus (Expanded Original Motion Picture Score) (2012) [MP3|320 кб / с]<Soundtrack>
  • Прометей / Prometheus (2012) BDRip [H.264] скачать через торрент бесплатно
  • Прометей / Prometheus (2012) BDRip [720p] [hand made 60fps]
  • Прометей / Prometheus (2012) [2D / 3D] BDRemux [H.264 / 1080p] скачать через торрент бесплатно
  • Прометей / Prometheus (2012) HDRip [Extended Fan Cut] скачать через торрент бесплатно
  • Прометей / Prometheus (2012) BDRip [H.264 / 1080p] [Extended Fan Cut] скачать через торрент бесплатно
  • Прометей / Prometheus (2012) HDRip [H.264] [Extended Fan Cut] скачать через торрент бесплатно
  • Прометей / Prometheus (2012) Blu-ray [H.264 / 1080p] [Bonus Disk] [EN / RU, Sub] скачать через торрент бесплатно


    • Комментарии (0):

      Информация

      Информация

        Посетители, находящиеся в группе Гости, не могут оставлять комментарии в данной новости.