Подписывайся на наш канал в Telegram https://t.me/torrentok и получи доступ к торрентам без ограничений!
.
Авторизация | Регистрация
torrent123.club


1917 / 1917 (2019) BDRip [H.264 / 1080p-LQ] [hand made 16:9] торрент скачать бесплатно

Дата: 27-03-2020, 05:00 | .torrent скачали: 0

1917 / 1917 (2019) BDRip [H.264 / 1080p-LQ] [hand made 16:9]Производство: США, Великобритания, Индия, Испания, Канада/DreamWorks, Reliance Entertainment, New Republic Pictures
Жанр: военный, боевик, драма, история
Режиссер: Сэм Мендес

Актеры
Джордж МакКэй, Дин-Чарльз Чепмен, Марк Стронг, Эндрю Скотт, Ричард Мэдден, Клэр Дюбюрк, Колин Фёрт, Бенедикт Камбербэтч, Дэниэл Мейс, Эдриан Скарборо

Описание

6 апреля 1917 года, разгар Первой мировой войны, Западный фронт на севере Франции. Британский генерал поручает капралу Блэйку и его сослуживцу смертельно опасную миссию. Они должны пересечь вражескую территорию, вроде бы оставленную германскими войсками, и доставить приказ об отмене наступления во 2-й батальон Девонширского полка, иначе 1600 солдат попадут в ловушку противника, в том числе и брат Блэйка.

Возраст: 16+ (зрителям, достигшим 16 лет)
Рейтинг MPAA: R (лицам до 17 лет обязательно присутствие взрослого)
Дата мировой премьеры: 4 декабря 2019
Дата российской премьеры: 30 января 2020
Релиз от: SergeyAms
Продолжительность: 01: 58: 58
Качество видео: BDRip
Перевод: Дублированный (iTunes)
Субтитры: Русские (форс., полные), английские (полные)
Видео: AVC/H.264, 1920х1080, ~6000 kbps
Аудио #1: AC3, 6 ch, 384 kbps - русский
Аудио #2: AC3, 6 ch, 448 kbps - рнглийский
x264 info: frame I: 719 Avg QP: 17.51 size: 151445
x264 info: frame P: 52077 Avg QP: 19.05 size: 56734
x264 info: frame B: 118348 Avg QP: 20.45 size: 19341
Unique ID : 263723363440560526202537277339729758413 (0xC66745B362EB99A56676938C061D88CD)
Complete name : D: TempNNM1917.2019.1080p.FS.mkv
Format : Matroska
Format version : Version 4/Version 2
File size : 5.68 GiB
Duration : 1h 58mn
Overall bit rate : 6 836 Kbps
Movie name : 1917 BDRemux.1080p
Writing library : Lavf57.71.100
Video
ID : 1
Format : AVC
Format/Info : Advanced Video Codec
Format profile : High@L4.1
Format settings, CABAC : Yes
Format settings, ReFrames : 4 frames
Codec ID : V_MPEG4/ISO/AVC
Duration : 1h 58mn
Bit rate : 6 000 Kbps
Width : 1 920 pixels
Height : 1 080 pixels
Display aspect ratio : 16: 9
Frame rate mode : Constant
Frame rate : 23.976 fps
Color space : YUV
Chroma subsampling : 4: 2: 0
Bit depth : 8 bits
Scan type : Progressive
Bits/(Pixel*Frame) : 0.121
Stream size : 4.88 GiB (86%)
Writing library : x264 core 157 r2935 545de2f
Encoding settings : cabac=1/ref=4/deblock=1: -2: -2/analyse=0x3: 0x113/me=umh/subme=10/psy=1/psy_rd=1.05: 0.10/mixed_ref=1/me_range=24/chroma_me=1/trellis=2/8x8dct=1/cqm=0/deadzone=21, 11/fast_pskip=0/chroma_qp_offset=-3/threads=5/lookahead_threads=1/sliced_threads=0/nr=0/decimate=0/interlaced=0/bluray_compat=0/constrained_intra=0/bframes=6/b_pyramid=2/b_adapt=2/b_bias=0/direct=1/weightb=1/open_gop=0/weightp=2/keyint=240/keyint_min=24/scenecut=40/intra_refresh=0/rc=2pass/mbtree=0/bitrate=6000/ratetol=1.0/qcomp=0.70/qpmin=3/qpmax=69/qpstep=4/cplxblur=20.0/qblur=0.5/ip_ratio=1.40/pb_ratio=1.30/aq=2: 1.00
Language : English
Default : Yes
Forced : No
Audio #1
ID : 2
Format : AC-3
Format/Info : Audio Coding 3
Mode extension : CM (complete main)
Format settings, Endianness : Big
Codec ID : A_AC3
Duration : 1h 58mn
Bit rate mode : Constant
Bit rate : 384 Kbps
Channel(s) : 6 channels
Channel positions : Front: L C R, Side: L R, LFE
Sampling rate : 48.0 KHz
Bit depth : 16 bits
Compression mode : Lossy
Stream size : 327 MiB (6%)
Title : Russian Dub iTunes
Language : Russian
Default : Yes
Forced : No
Audio #2
ID : 3
Format : AC-3
Format/Info : Audio Coding 3
Mode extension : CM (complete main)
Format settings, Endianness : Big
Codec ID : A_AC3
Duration : 1h 58mn
Bit rate mode : Constant
Bit rate : 448 Kbps
Channel(s) : 6 channels
Channel positions : Front: L C R, Side: L R, LFE
Sampling rate : 48.0 KHz
Bit depth : 16 bits
Compression mode : Lossy
Stream size : 381 MiB (7%)
Title : English Original
Language : English
Default : No
Forced : No
Text #1
ID : 4
Format : UTF-8
Codec ID : S_TEXT/UTF8
Codec ID/Info : UTF-8 Plain Text
Title : Russian forced
Language : Russian
Default : Yes
Forced : No
Text #2
ID : 5
Format : UTF-8
Codec ID : S_TEXT/UTF8
Codec ID/Info : UTF-8 Plain Text
Title : Russian full
Language : Russian
Default : No
Forced : No
Text #3
ID : 6
Format : UTF-8
Codec ID : S_TEXT/UTF8
Codec ID/Info : UTF-8 Plain Text
Title : English SDH
Language : English
Default : No
Forced : No
Menu
00: 00: 00.000 : : Chapter 01
00: 04: 59.424 : : Chapter 02
00: 08: 19.374 : : Chapter 03
00: 13: 26.639 : : Chapter 04
00: 16: 38.789 : : Chapter 05
00: 23: 32.494 : : Chapter 06
00: 30: 28.660 : : Chapter 07
00: 35: 34.549 : : Chapter 08
00: 42: 25.376 : : Chapter 09
00: 51: 34.091 : : Chapter 10
00: 56: 36.310 : : Chapter 11
01: 02: 29.079 : : Chapter 12
01: 06: 33.573 : : Chapter 13
01: 12: 04.320 : : Chapter 14
01: 19: 45.197 : : Chapter 15
01: 28: 47.822 : : Chapter 16
01: 33: 43.451 : : Chapter 17
01: 38: 11.594 : : Chapter 18
01: 41: 43.681 : : Chapter 19
01: 49: 46.580 : : Chapter 20

Скриншоты для ознакомления



Все одноименные релизы в Клубе
Время раздачи: c 5 до 19 мск (до появления первых 3-5 скачавших)
Рейтинг →
 (голосов: 1, оценка 3/5, голосовать можно 1 раз )

Другие торренты по теме:

  • Голубь сидел на ветке, размышляя о бытии / En duva satt p en gren och funderade p tillvaron (2014) BDRip [H.264 / 1080p-LQ]
  • V.I.P. / V.I.P. / Beuiaipi (2017) BDRip [H.265 / 1080p-LQ] [10-bit]
  • Призрачный патруль / R.I.P.D. (2013) BDRip [H.265 / 1080p-LQ]


    • Комментарии (0):

      Информация

      Информация

        Посетители, находящиеся в группе Гости, не могут оставлять комментарии в данной новости.