Подписывайся на наш канал в Telegram https://t.me/torrentok и получи доступ к торрентам без ограничений!
.
Авторизация | Регистрация
torrent123.club
Торрент трекер | Скачать торрент | Скачать Через Торрент | Скачать торрент бесплатно | Скачать торрент без регистрации Другое торрент скачать Бегущий по лезвию 2049 / Blade Runner 2049 (2017) BDRip 3D [H.264 / 1080p-LQ] [Вертикальная анаморфная стереопара] [hand made 16:9] торрент скачать бесплатно


    Бегущий по лезвию 2049 / Blade Runner 2049 (2017) BDRip 3D [H.264 / 1080p-LQ] [Вертикальная анаморфная стереопара] [hand made 16:9] торрент скачать бесплатно

    Дата: 31-03-2020, 05:00 | .torrent скачали: 1

    Бегущий по лезвию 2049 / Blade Runner 2049 (2017) BDRip 3D [H.264 / 1080p-LQ] [Вертикальная анаморфная стереопара] [hand made 16:9]Производство: США, Великобритания, Канада/16: 14 Entertainment, Alcon Entertainment, Columbia Pictures, Scott Free Productions, Thunderbird Films, Torridon Films, Warner Bros. Pictures
    Жанр: Фантастика, триллер, драма, детектив
    Режиссер: Дени Вильнёв

    Актеры
    Райан Гослинг, Харрисон Форд, Ана де Армас, Сильвия Хукс, Робин Райт, Маккензи Дэвис, Карла Юри, Ленни Джеймс, Дэйв Батиста, Джаред Лето

    Описание

    В недалеком будущем мир населен людьми и репликантами, созданными выполнять самую тяжелую работу. Работа офицера полиции Кей — держать репликантов под контролем в условиях нарастающего напряжения… Пока он случайно не становится обладателем секретной информации, которая ставит под угрозу существование всего человечества. Желая найти ключ к разгадке, Кей решает разыскать Рика Декарда, бывшего офицера специального подразделения полиции Лос-Анджелеса, который бесследно исчез много лет назад.

    Возраст: 18+ (зрителям, достигшим 18 лет. запрещено для детей)
    Рейтинг MPAA: R (лицам до 17 лет обязательно присутствие взрослого)
    Дата мировой премьеры: 3 октября 2017
    Дата российской премьеры: 5 октября 2017, WDSSPR
    Релиз от: SergeyAms
    Продолжительность: 02: 43: 27
    Качество видео: BDRip 3D
    Перевод: Дублированный
    Субтитры: Русские (полные), английские (полные)
    Видео: AVC/H.264, 1920x1080, ~6 Mbps
    Аудио #1: AC3, 6 ch, 640 kbps - Русский
    Аудио #2: DTS, 6 ch, 768 kbps - Английский
    Unique ID : 247507263646488771344100957327928214171 (0xBA342A40C87A4CD0B722F81026E2429B)
    Complete name : D: TempNNMBladeRunner2049.3D.1080p.FS.mkv
    Format : Matroska
    Format version : Version 4/Version 2
    File size : 8.46 GiB
    Duration : 2h 43mn
    Overall bit rate : 7 411 Kbps
    Movie name : BLADE_RUNNER2049_3D_RMX.Title0
    Encoded date : UTC 2018-01-06 04: 35: 24
    Writing application : mkvmerge v9.8.0 (\'Kuglblids\') 64bit
    Writing library : Lavf57.71.100
    Video
    ID : 1
    Format : AVC
    Format/Info : Advanced Video Codec
    Format profile : High@L4.1
    Format settings, CABAC : Yes
    Format settings, ReFrames : 4 frames
    Codec ID : V_MPEG4/ISO/AVC
    Duration : 2h 43mn
    Bit rate : 6 000 Kbps
    Width : 1 920 pixels
    Height : 1 080 pixels
    Display aspect ratio : 16: 9
    Frame rate mode : Constant
    Frame rate : 23.976 fps
    Color space : YUV
    Chroma subsampling : 4: 2: 0
    Bit depth : 8 bits
    Scan type : Progressive
    Bits/(Pixel*Frame) : 0.121
    Stream size : 6.69 GiB (79%)
    Writing library : x264 core 155 r2893M b00bcaf
    Encoding settings : cabac=1/ref=4/deblock=1: -3: -3/analyse=0x3: 0x113/me=umh/subme=10/psy=1/psy_rd=1.05: 0.10/mixed_ref=1/me_range=24/chroma_me=1/trellis=2/8x8dct=1/cqm=0/deadzone=21, 11/fast_pskip=0/chroma_qp_offset=-3/threads=5/lookahead_threads=1/sliced_threads=0/nr=0/decimate=1/interlaced=0/bluray_compat=0/constrained_intra=0/bframes=6/b_pyramid=2/b_adapt=2/b_bias=0/direct=1/weightb=1/open_gop=0/weightp=2/keyint=240/keyint_min=24/scenecut=40/intra_refresh=0/rc_lookahead=20/rc=2pass/mbtree=1/bitrate=6000/ratetol=1.0/qcomp=0.70/qpmin=3/qpmax=69/qpstep=4/cplxblur=20.0/qblur=0.5/ip_ratio=1.40/aq=2: 1.00
    Default : Yes
    Forced : No
    Audio #1
    ID : 2
    Format : AC-3
    Format/Info : Audio Coding 3
    Mode extension : CM (complete main)
    Format settings, Endianness : Big
    Codec ID : A_AC3
    Duration : 2h 43mn
    Bit rate mode : Constant
    Bit rate : 640 Kbps
    Channel(s) : 6 channels
    Channel positions : Front: L C R, Side: L R, LFE
    Sampling rate : 48.0 KHz
    Bit depth : 16 bits
    Compression mode : Lossy
    Stream size : 748 MiB (9%)
    Language : Russian
    Default : Yes
    Forced : No
    Audio #2
    ID : 3
    Format : DTS
    Format/Info : Digital Theater Systems
    Mode : 16
    Format settings, Endianness : Big
    Codec ID : A_DTS
    Duration : 2h 43mn
    Bit rate mode : Constant
    Bit rate : 768 Kbps
    Channel(s) : 6 channels
    Channel positions : Front: L C R, Side: L R, LFE
    Sampling rate : 48.0 KHz
    Bit depth : 16 bits
    Compression mode : Lossy
    Stream size : 898 MiB (10%)
    Language : English
    Default : No
    Forced : No
    Text #1
    ID : 4
    Format : UTF-8
    Codec ID : S_TEXT/UTF8
    Codec ID/Info : UTF-8 Plain Text
    Language : Russian
    Default : Yes
    Forced : No
    Text #2
    ID : 5
    Format : UTF-8
    Codec ID : S_TEXT/UTF8
    Codec ID/Info : UTF-8 Plain Text
    Language : English
    Default : No
    Forced : No
    Menu
    00: 00: 00.000 : : (01)00: 00: 00: 000
    00: 12: 36.172 : : (02)00: 12: 36: 172
    00: 23: 29.279 : : (03)00: 23: 29: 279
    00: 37: 00.885 : : (04)00: 37: 00: 885
    00: 42: 50.317 : : (05)00: 42: 50: 317
    00: 49: 24.503 : : (06)00: 49: 24: 503
    00: 58: 35.552 : : (07)00: 58: 35: 552
    01: 04: 10.679 : : (08)01: 04: 10: 679
    01: 15: 47.292 : : (09)01: 15: 47: 292
    01: 25: 12.479 : : (10)01: 25: 12: 479
    01: 36: 15.060 : : (11)01: 36: 15: 060
    01: 50: 55.104 : : (12)01: 50: 55: 104
    02: 01: 36.872 : : (13)02: 01: 36: 872
    02: 08: 40.377 : : (14)02: 08: 40: 377
    02: 16: 42.485 : : (15)02: 16: 42: 485
    02: 27: 46.729 : : (16)02: 27: 46: 729

    Скриншоты для ознакомления



    Все одноименные релизы в Клубе
    Время раздачи: 24/7 (до появления первых 3-5 скачавших)
    Рейтинг →
     (голосов: 1, оценка 4/5, голосовать можно 1 раз )

    Другие торренты по теме:

  • Бегущий по лезвию / Blade Runner (1982) HDRip [Final Cut] скачать через торрент бесплатно
  • Бегущий по лезвию / Blade Runner (1982) BDRip [H.264 / 1080p] [The Final Cut]
  • Бегущий по лезвию / Blade Runner (1982) [Final Cut] AC3 5.1 [Solod]
  • Бегущий по лезвию бритвы / Blade Runner (1982) BDRip [H.265 / 720р-LQ] [Final Cut]
  • Бегущий по лезвию 2049 / Blade Runner 2049 (2017) WEBRip [H.264 / 1080p] [Трейлер#2] [EN]
  • Blade Runner: Black Out 2022 | Бегущий по лезвию: отключение света 2022 [2017, Special, 1 эп.] WEB-DL 1080p raw
  • Hans Zimmer & Benjamin Wallfisch - Blade Runner 2049 / Бегущий по лезвию 2049 (Original Motion Picture Soundtrack) (2017) [MP3|320 кб / с]<Soundtrack>
  • Hans Zimmer & Benjamin Wallfisch - Blade Runner 2049 / Бегущий по лезвию 2049 (Original Motion Picture Soundtrack) (2017) [FLAC|Lossless|WEB-DL|tracks]<Soundtrack>


    • Комментарии (0):

      Информация

      Информация

        Посетители, находящиеся в группе Гости, не могут оставлять комментарии в данной новости.