Подписывайся на наш канал в Telegram https://t.me/torrentok и получи доступ к торрентам без ограничений!
.
Авторизация | Регистрация
torrent123.club


Кошки / Cats (2019) BDRip [H.264 / 1080p-LQ] [hand made 16:9] торрент скачать бесплатно

Дата: 2-04-2020, 05:00 | .torrent скачали: 2

Кошки / Cats (2019) BDRip [H.264 / 1080p-LQ] [hand made 16:9]Производство: Великобритания, США/Working Title Films, Amblin Entertainment
Жанр: Мюзикл, Фэнтези, Драма, Комедия
Режиссер: Том Хупер

Актеры
Франческа Хэйуорд, Джуди Денч, Роберт Фэйрчайлд, Лори Дэвидсон, Дженнифер Хадсон, Тейлор Свифт

Описание

На ежегодный кошачий бал собираются кошки из племени Избранных. Все они разные: породистые и беспородные, юные и старые, домашние любимцы и бездомные. Когда они собираются вместе, каждая кошка рассказывает о себе — чем же она так исключительна, и за что её можно считать избранной, чтобы она получила право отправиться в кошачий рай.

Возраст: 12+ (зрителям, достигшим 12 лет)
Рейтинг MPAA: PG (рекомендуется присутствие родителей)
Дата мировой премьеры: 16 декабря 2019
Дата российской премьеры: 2 января 2020, UPI
Релиз от: SergeyAms
Продолжительность: 01: 49: 58
Качество видео: BDRip
Перевод: Дублированный (iTunes)
Субтитры: Русские (вшитые, неотключаемые)
Видео: AVC/H.264, 1920x1080, ~5 Mbps
Аудио: AC3, 6 ch, 384 Kbps - Русский
x264 info: frame I: 1511 Avg QP: 17.59 size: 123118
x264 info: frame P: 41371 Avg QP: 18.53 size: 54299
x264 info: frame B: 115312 Avg QP: 20.12 size: 14363
Unique ID : 246678476693855838394129539497445461620 (0xB9948BE6C5A76EF68B1A25A2B0468E74)
Complete name : D: TempNNMCats.2019.1080p.FS.mkv
Format : Matroska
Format version : Version 4/Version 2
File size : 4.14 GiB
Duration : 1h 49mn
Overall bit rate : 5 386 Kbps
Encoded date : UTC 2020-04-01 11: 50: 57
Writing application : mkvmerge v9.8.0 (\'Kuglblids\') 64bit
Writing library : libebml v1.3.4 + libmatroska v1.4.5
Video
ID : 1
Format : AVC
Format/Info : Advanced Video Codec
Format profile : High@L4.1
Format settings, CABAC : Yes
Format settings, ReFrames : 4 frames
Codec ID : V_MPEG4/ISO/AVC
Duration : 1h 49mn
Bit rate : 5 000 Kbps
Width : 1 920 pixels
Height : 1 080 pixels
Display aspect ratio : 16: 9
Frame rate mode : Constant
Frame rate : 23.976 fps
Color space : YUV
Chroma subsampling : 4: 2: 0
Bit depth : 8 bits
Scan type : Progressive
Bits/(Pixel*Frame) : 0.101
Stream size : 3.76 GiB (91%)
Writing library : x264 core 157 r2958 57baac4
Encoding settings : cabac=1/ref=4/deblock=1: -2: -2/analyse=0x3: 0x113/me=umh/subme=9/psy=1/psy_rd=1.05: 0.10/mixed_ref=1/me_range=24/chroma_me=1/trellis=2/8x8dct=1/cqm=0/deadzone=21, 11/fast_pskip=0/chroma_qp_offset=-3/threads=5/lookahead_threads=1/sliced_threads=0/nr=0/decimate=0/interlaced=0/bluray_compat=0/constrained_intra=0/bframes=6/b_pyramid=2/b_adapt=2/b_bias=0/direct=1/weightb=1/open_gop=0/weightp=2/keyint=240/keyint_min=24/scenecut=40/intra_refresh=0/rc=2pass/mbtree=0/bitrate=5000/ratetol=1.0/qcomp=0.70/qpmin=3/qpmax=69/qpstep=4/cplxblur=20.0/qblur=0.5/ip_ratio=1.40/pb_ratio=1.30/aq=2: 1.00
Language : English
Default : Yes
Forced : No
Audio
ID : 2
Format : AC-3
Format/Info : Audio Coding 3
Mode extension : CM (complete main)
Format settings, Endianness : Big
Codec ID : A_AC3
Duration : 1h 49mn
Bit rate mode : Constant
Bit rate : 384 Kbps
Channel(s) : 6 channels
Channel positions : Front: L C R, Side: L R, LFE
Sampling rate : 48.0 KHz
Bit depth : 16 bits
Compression mode : Lossy
Stream size : 302 MiB (7%)
Title : DUB
Language : Russian
Default : Yes
Forced : No
Английская дорога убрана, так как русская и английская дороги отличаются лишь несколькими фразами, произнесенными вне песен (сами песни в фильме все звучат на английском). Смотрите сэмпл.
Скриншоты для ознакомления



Все одноименные релизы в Клубе
Время раздачи: 24/7 (до появления первых 3-5 скачавших)
Рейтинг →
 (голосов: 1, оценка 3/5, голосовать можно 1 раз )

Другие торренты по теме:

  • Кошки / Cats (1998) 2xDVD9 [EN]
  • Кошки / Cats (2019) WEB-DL [H.264 / 1080p-LQ]
  • Кошки / Cats (2019) BDRip [H.264 / 720p] [PR]
  • Кошки / Cats (2019) BDRip [H.264 / 1080p] [PR]
  • Кошки / Cats (2019) BDRemux [H.264 / 1080p]
  • Бешеные кошки / Reservoir Cats (2011) WEB-DLRip скачать через торрент бесплатно
  • N.G. Большие кошки. Удивительная семья / Big Cats: An Amazing Animal Family (2015) HDTVRip [H.264 / 1080p] (серии 1-2 из 2)
  • Африканские кошки: Королевство смелых / African Cats (2011) BDRip [H.264 / 1080p]


    • Комментарии (0):

      Информация

      Информация

        Посетители, находящиеся в группе Гости, не могут оставлять комментарии в данной новости.