Подписывайся на наш канал в Telegram https://t.me/torrentok и получи доступ к торрентам без ограничений!
.
Авторизация | Регистрация
torrent123.club


Юрий Сучков - 5 Видеоклипов (2020) [H.264 / 720p] <Chanson, Post-Punk> торрент скачать бесплатно

Дата: 5-04-2020, 05:00 | .torrent скачали: 0

Юрий Сучков - 5 Видеоклипов (2020) [H.264 / 720p] &ltChanson, Post-Punk>Производство: (с) Drova3Studio LTD Corporation/(с) 2020 Zymotic Productions Ultra-Video
Жанр: Chanson, Post-Punk
Треклист:
001 09.01. Юрий Сучков. Муму.Голливудская версия V.2 2020
002 09.02. Юрий Сучков. Ноутбук (Remaster Audio) 2020
003 09.03. Юрий Сучков. Мяу! (Кошачий твист-ламбада) 2020
004 09.04. Юрий Сучков. На острове Чунга Чанга 2020
005 09.05. Юрий Сучков. Инверсия 2020
Возраст: этот продукт не был классифицирован
Дата российской премьеры: 03-04-2020
Релиз от: Vayper (Zymotic Productions Ultra)
Продолжительность: 00: 26: 20
Качество видео: Master
Видео: AVC/H.264, 1280x720, ~6997 kbps
Аудио: AAC, 2 ch, 320 Kbps
General
Complete name : C: VIDEOЮрий Сучков. Video Albums h.264_720p_1080p9. Юрий Сучков. Муму Video Album 20209.05. Юрий Сучков. Инверсия 2020.mp4
Format : MPEG-4
Format profile : Base Media/Version 2
Codec ID : mp42 (mp42/isom)
File size : 240 MiB
Duration : 4 min 47 s
Overall bit rate mode : Variable
Overall bit rate : 6 997 kb/s
Encoded date : UTC 2020-04-03 03: 14: 41
Tagged date : UTC 2020-04-03 03: 14: 41
Video
ID : 2
Format : AVC
Format/Info : Advanced Video Codec
Format profile : High@L4
Format settings : CABAC/2 Ref Frames
Format settings, CABAC : Yes
Format settings, Reference frames : 2 frames
Format settings, GOP : M=2, N=15
Muxing mode : Container profile=Baseline@3.1
Codec ID : avc1
Codec ID/Info : Advanced Video Coding
Duration : 4 min 47 s
Bit rate mode : Variable
Bit rate : 6 672 kb/s
Maximum bit rate : 16.0 Mb/s
Width : 1 280 pixels
Height : 720 pixels
Display aspect ratio : 16: 9
Frame rate mode : Constant
Frame rate : 29.970 (30000/1001) FPS
Color space : YUV
Chroma subsampling : 4: 2: 0
Bit depth : 8 bits
Scan type : Progressive
Bits/(Pixel*Frame) : 0.242
Stream size : 229 MiB (95%)
Language : English
Encoded date : UTC 2020-04-03 03: 14: 41
Tagged date : UTC 2020-04-03 03: 14: 41
Codec configuration box : avcC
Audio
ID : 1
Format : AAC LC
Format/Info : Advanced Audio Codec Low Complexity
Codec ID : mp4a-40-2
Duration : 4 min 47 s
Bit rate mode : Constant
Bit rate : 320 kb/s
Channel(s) : 2 channels
Channel layout : L R
Sampling rate : 44.1 kHz
Frame rate : 43.066 FPS (1024 SPF)
Compression mode : Lossy
Stream size : 11.0 MiB (5%)
Language : English
Encoded date : UTC 2020-04-03 03: 14: 41
Tagged date : UTC 2020-04-03 03: 14: 41
Рейтинг →
 (голосов: 1, оценка 4/5, голосовать можно 1 раз )

Другие торренты по теме:

  • Юрий Сучков - Видеоальбомы (8 релизов: 98 Music Videos) (2017-2019) [H.264 / 720p] [hand made]
  • Юрий Сучков - 12 релизов 133 треков (2007-2019) Авторская раздача [MP3|V2~190 Kbps, V0~262 Kbps] <Chanson, Post-Punk, Monolog>
  • Юрий Сучков - Видеоальбомы (8 релизов: 98 Music Videos) (2017-2019) HDRip [H.264] [Hand Made]
  • Юрий Сучков - Муму. Голливудская версия (2020) Master-Clip [Н.264 / 720p] <Chanson>
  • Юрий Сучков - Муму. Голливудская версия (single) (2020) [MP3|320 Kbps] <Chanson>
  • Юрий Сучков - На острове Чунга-Чанга (2020) Single [MP3|320 Kbps] <Chanson, Post-Punk>


    • Комментарии (0):

      Информация

      Информация

        Посетители, находящиеся в группе Гости, не могут оставлять комментарии в данной новости.