Подписывайся на наш канал в Telegram https://t.me/torrentok и получи доступ к торрентам без ограничений!
.
Авторизация | Регистрация
torrent123.club


Алита: Боевой ангел / Alita: Battle Angel (2019) HybridRip [H.264 / 720p] [Open Matte] торрент скачать бесплатно

Дата: 6-04-2020, 05:00 | .torrent скачали: 0

Алита: Боевой ангел / Alita: Battle Angel (2019) HybridRip [H.264 / 720p] [Open Matte]Производство: Канада, Аргентина, США/Twentieth Century Fox, Lightstorm Entertainment, Troublemaker Studios
Жанр: фантастика, боевик, триллер, приключения
Режиссер: Роберт Родригес
Продюсер: Джеймс Кэмерон, Джон Ландау, Дэвид Валдес

Актеры
Роза Салазар, Кристоф Вальц, Дженнифер Коннелли, Махершала Али, Эд Скрейн, Джеки Эрл Хейли, Кин Джонсон, Хорхе Лендеборг мл., Лана Кондор, Идара Виктор

Описание

Действие фильма происходит через 300 лет после Великой войны в XXVI веке. Доктор Идо находит останки женщины-киборга. После починки киборг ничего не помнит, но обнаруживает, что в состоянии пользоваться боевыми приемами киборгов. Начинаются поиски утерянных воспоминаний.

Возраст: 16+ (зрителям, достигшим 16 лет)
Рейтинг MPAA: PG-13 (детям до 13 лет просмотр нежелателен)
Дата мировой премьеры: 5 февраля 2019
Дата российской премьеры: 14 февраля 2019
Релиз от: k.e.n MegaPeer
Продолжительность: 02: 02: 05
Качество видео: HybridRip 720p
Перевод: Дублированный (Лицензия)
Субтитры: Русские (Forced, Full), английские
Видео: H.264/AVC, 1280x720 (16: 9), 23.976 fps, 5862 kbps
Аудио #1: AC3, 48 kHz, 6 ch, 448 kbps - русский
Аудио #2: AC3, 48 kHz, 6 ch, 448 kbps - английскийx264 info: frame I: 1662 Avg QP: 14.92 size: 150207
x264 info: frame P: 42057 Avg QP: 17.21 size: 59526
x264 info: frame B: 131721 Avg QP: 18.57 size: 19774
x264 info: consecutive B-frames: 3.3% 4.3% 9.8% 24.4% 14.6% 41.8% 1.1% 0.3% 0.2% 0.1% 0.1% 0.0%
General
Unique ID : 250138299639331453454255029986759250577 (0xBC2EE257BE2AF922A667E70CC7539291)
Complete name : D: КИНО НА ДИСКАлита. Боевой ангел.2019 (Р.Салазар, К.Вальц).k.e.n MegaPeer.mkv
Format : Matroska
Format version : Version 2
File size : 5.76 GiB
Duration : 2 h 1 min
Overall bit rate : 6 757 kb/s
Encoded date : UTC 2020-04-05 12: 53: 52
Writing application : mkvmerge v5.3.0 (\'I could have danced\') built on Feb 9 2012 10: 38: 07
Writing library : libebml v1.2.3 + libmatroska v1.3.0
Cover : Yes
Attachments : cover.jpg
Video
ID : 1
Format : AVC
Format/Info : Advanced Video Codec
Format profile : High@L4.1
Format settings : CABAC/9 Ref Frames
Format settings, CABAC : Yes
Format settings, Reference frames : 9 frames
Codec ID : V_MPEG4/ISO/AVC
Duration : 2 h 1 min
Bit rate : 5 862 kb/s
Width : 1 280 pixels
Height : 720 pixels
Display aspect ratio : 16: 9
Frame rate mode : Constant
Frame rate : 23.976 (24000/1001) FPS
Color space : YUV
Chroma subsampling : 4: 2: 0
Bit depth : 8 bits
Scan type : Progressive
Bits/(Pixel*Frame) : 0.265
Stream size : 4.88 GiB (85%)
Writing library : x264 core 159 r2991+50 ce3db24 t_mod_New (8 10)-bit@all X86_64
Encoding settings : cabac=1/ref=9/deblock=1: -3: -3/analyse=0x3: 0x133/me=umh/subme=11/psy=1/fade_compensate=0.00/psy_rd=1.00: 0.00/mixed_ref=1/me_range=32/chroma_me=1/trellis=2/8x8dct=1/cqm=0/deadzone=21, 11/fast_pskip=0/chroma_qp_offset=-2/threads=12/lookahead_threads=3/sliced_threads=0/nr=0/decimate=0/interlaced=0/bluray_compat=0/constrained_intra=0/fgo=0/bframes=11/b_pyramid=2/b_adapt=2/b_bias=0/direct=3/weightb=1/open_gop=0/weightp=2/keyint=240/keyint_min=23/scenecut=40/intra_refresh=0/rc_lookahead=60/rc=2pass/mbtree=0/bitrate=5862/ratetol=1.0/qcomp=0.65/qpmin=0: 0: 0/qpmax=69: 69: 69/qpstep=4/cplxblur=20.0/qblur=0.5/vbv_maxrate=50000/vbv_bufsize=62500/nal_hrd=none/filler=0/ip_ratio=1.30/pb_ratio=1.26/aq=3: 0.80/aq-sensitivity=10.00/aq-factor=1.00: 1.00: 1.00/aq2=0/aq3=0
Language : English
Default : Yes
Forced : No
Color range : Limited
Color primaries : BT.709
Transfer characteristics : BT.709
Matrix coefficients : BT.709
Audio #1
ID : 2
Format : AC-3
Format/Info : Audio Coding 3
Commercial name : Dolby Digital
Codec ID : A_AC3
Duration : 2 h 1 min
Bit rate mode : Constant
Bit rate : 448 kb/s
Channel(s) : 6 channels
Channel layout : L R C LFE Ls Rs
Sampling rate : 48.0 kHz
Frame rate : 31.250 FPS (1536 SPF)
Bit depth : 16 bits
Compression mode : Lossy
Stream size : 391 MiB (7%)
Title : DUB
Language : Russian
Service kind : Complete Main
Default : Yes
Forced : Yes
Audio #2
ID : 3
Format : AC-3
Format/Info : Audio Coding 3
Commercial name : Dolby Digital
Codec ID : A_AC3
Duration : 2 h 1 min
Bit rate mode : Constant
Bit rate : 448 kb/s
Channel(s) : 6 channels
Channel layout : L R C LFE Ls Rs
Sampling rate : 48.0 kHz
Frame rate : 31.250 FPS (1536 SPF)
Bit depth : 16 bits
Compression mode : Lossy
Stream size : 391 MiB (7%)
Title : Original
Language : English
Service kind : Complete Main
Default : No
Forced : No
Text #1
ID : 4
Format : UTF-8
Codec ID : S_TEXT/UTF8
Codec ID/Info : UTF-8 Plain Text
Title : Forced
Language : Russian
Default : Yes
Forced : Yes
Text #2
ID : 5
Format : UTF-8
Codec ID : S_TEXT/UTF8
Codec ID/Info : UTF-8 Plain Text
Title : Full
Language : Russian
Default : No
Forced : No
Text #3
ID : 6
Format : UTF-8
Codec ID : S_TEXT/UTF8
Codec ID/Info : UTF-8 Plain Text
Title : SDH
Language : English
Default : No
Forced : No
Menu
00: 00: 00.000 : en: Chapter 01
00: 03: 28.625 : en: Chapter 02
00: 07: 51.680 : en: Chapter 03
00: 10: 07.982 : en: Chapter 04
00: 13: 06.703 : en: Chapter 05
00: 15: 06.739 : en: Chapter 06
00: 18: 04.542 : en: Chapter 07
00: 22: 58.711 : en: Chapter 08
00: 25: 35.325 : en: Chapter 09
00: 31: 40.899 : en: Chapter 10
00: 33: 29.216 : en: Chapter 11
00: 36: 32.816 : en: Chapter 12
00: 38: 30.892 : en: Chapter 13
00: 42: 05.481 : en: Chapter 14
00: 45: 58.214 : en: Chapter 15
00: 48: 31.450 : en: Chapter 16
00: 52: 57.007 : en: Chapter 17
00: 55: 14.353 : en: Chapter 18
01: 00: 39.761 : en: Chapter 19
01: 02: 56.564 : en: Chapter 20
01: 05: 16.788 : en: Chapter 21
01: 10: 50.496 : en: Chapter 22
01: 13: 37.288 : en: Chapter 23
01: 16: 35.216 : en: Chapter 24
01: 18: 52.227 : en: Chapter 25
01: 22: 48.297 : en: Chapter 26
01: 24: 55.340 : en: Chapter 27
01: 28: 25.217 : en: Chapter 28
01: 33: 18.551 : en: Chapter 29
01: 36: 08.763 : en: Chapter 30
01: 41: 54.692 : en: Chapter 31
01: 45: 23.442 : en: Chapter 32
01: 48: 16.490 : en: Chapter 33
01: 51: 43.655 : en: Chapter 34
01: 54: 43.668 : en: Chapter 35
01: 56: 51.504 : en: Chapter 36
OAR BD наложен поверх WEB-DL open matte с помощью AutoOverlay AviSynth plugin.
Open Matte версия фильма, имеет большее наполнение кадра, по сравнению с блюрэй.
Скриншоты для ознакомления



Все одноименные релизы в Клубе
Время раздачи: 24/7 (до появления первых 3-5 скачавших)
Рейтинг →
 (голосов: 1, оценка 5/5, голосовать можно 1 раз )

Другие торренты по теме:

  • Алита: Боевой ангел / Alita: Battle Angel (2019) CamRip [MVO] [AD]
  • Пэт Кэдиган | Алита: Боевой ангел. Айрон сити (2019) [MP3]
  • Пэт Кэдиган | Алита. Боевой ангел. Айрон Сити (2019) [FB2]
  • Пэт Кэдиган | Алита. Боевой ангел (2019) [FB2]
  • Пэт Кэдиган | Алита. Боевой ангел (2019) [MP3]
  • Алита: Боевой ангел / Alita: Battle Angel (2019) WEBRip [MVO] [AD]
  • Алита: Боевой ангел / Alita: Battle Angel (2019) WEBRip [H.264 / 1080p-LQ] [MVO] [AD]
  • Алита: Боевой ангел / Alita: Battle Angel (2019) TS [H.264] [MP4|1280x604] [AD]


    • Комментарии (0):

      Информация

      Информация

        Посетители, находящиеся в группе Гости, не могут оставлять комментарии в данной новости.