Подписывайся на наш канал в Telegram https://t.me/torrentok и получи доступ к торрентам без ограничений!
.
Авторизация | Регистрация
torrent123.club


Гладиатор / Gladiator (2000) Hybrid [H.264 / 1080p] [Extended Cut] [Open Matte] торрент скачать бесплатно

Дата: 9-04-2020, 05:01 | .torrent скачали: 0

Гладиатор / Gladiator (2000) Hybrid [H.264 / 1080p] [Extended Cut] [Open Matte]Производство: США, Великобритания, Мальта, Марокко/DreamWorks, Universal Pictures, Scott Free Productions
Жанр: боевик, история, драма, приключения
Режиссер: Ридли Скотт

Актеры
Рассел Кроу, Хоакин Феникс, Конни Нильсен, Оливер Рид, Ричард Харрис, Дерек Джекоби, Джимон Хунсу, Дэвид Скофилд, Джон Шрэпнел, Томас Арана

Описание

В великой Римской империи не было военачальника, равного генералу Максимусу. Непобедимые легионы, которыми командовал этот благородный воин, боготворили его и могли последовать за ним даже в ад.
Но случилось так, что отважный Максимус, готовый сразиться с любым противником в честном бою, оказался бессилен против вероломных придворных интриг. Генерала предали и приговорили к смерти. Чудом избежав гибели, Максимус становится гладиатором.
Быстро снискав себе славу в кровавых поединках, он оказывается в знаменитом римском Колизее, на арене которого он встретится в смертельной схватке со своим заклятым врагом…

Возраст: 16+ (зрителям, достигшим 16 лет)
Рейтинг MPAA: R (лицам до 17 лет обязательно присутствие взрослого)
Релиз от: Yaut
Продолжительность: 02: 50: 45
Качество видео: Hybrid 1080p
Перевод: Дублированный, многоголосый профессиональный
Субтитры: Русские (Forced, на расширенные эпизоды, Full, комментарии Ridley Scott и Russell Crowe), английские (Full, SDH)
Видео: AVC/H.264, 1920x1080, ~15.4 mbps
Аудио 1: AC3, 6 ch, 448 kbps, Русский (DUB)
Аудио 2: AC3, 6 ch, 448 kbps, Русский (MVO Интер)
Аудио 3: AC3, 6 ch, 448 kbps, АнглийскийGeneral
Unique ID : 285798915374786629235843218947278477178 (0xD702DE717FF2EC4926E82A12E655977A)
Complete name : Gladiator.2000.Extended.cut.10th.Anniversary.Open.Matte.Hybrid.1080p.mkv
Format : Matroska
Format version : Version 4
File size : 20.0 GiB
Duration : 2 h 50 min
Overall bit rate : 16.8 Mb/s
Movie name : Gladiator (2000) BDRip
Encoded date : UTC 2019-05-17 18: 07: 18
Writing application : mkvmerge v30.1.0 (\'Forever And More\') 64-bit
Writing library : libebml v1.3.6 + libmatroska v1.4.9
Cover : Yes
Attachments : Cover.jpg
Video
ID : 1
Format : AVC
Format/Info : Advanced Video Codec
Format profile : High@L4.1
Format settings : CABAC/4 Ref Frames
Format settings, CABAC : Yes
Format settings, Reference : 4 frames
Codec ID : V_MPEG4/ISO/AVC
Duration : 2 h 50 min
Bit rate : 15.4 Mb/s
Width : 1 920 pixels
Height : 1 080 pixels
Display aspect ratio : 16: 9
Frame rate mode : Constant
Frame rate : 23.976 (24000/1001) FPS
Color space : YUV
Chroma subsampling : 4: 2: 0
Bit depth : 8 bits
Scan type : Progressive
Bits/(Pixel*Frame) : 0.310
Stream size : 18.4 GiB (92%)
Writing library : x264 core 157 r2935 545de2f
Encoding settings : cabac=1/ref=4/deblock=1: -3: -2/analyse=0x3: 0x133/me=umh/subme=10/psy=1/psy_rd=1.00: 0.00/mixed_ref=1/me_range=32/chroma_me=1/trellis=2/8x8dct=1/cqm=0/deadzone=21, 11/fast_pskip=0/chroma_qp_offset=-2/threads=6/lookahead_threads=1/sliced_threads=0/nr=0/decimate=1/interlaced=0/bluray_compat=0/constrained_intra=0/bframes=8/b_pyramid=2/b_adapt=2/b_bias=0/direct=3/weightb=1/open_gop=0/weightp=2/keyint=240/keyint_min=23/scenecut=40/intra_refresh=0/rc_lookahead=60/rc=crf/mbtree=1/crf=18.0/qcomp=0.60/qpmin=0/qpmax=69/qpstep=4/vbv_maxrate=62500/vbv_bufsize=78125/crf_max=0.0/nal_hrd=none/filler=0/ip_ratio=1.40/aq=1: 1.00
Default : Yes
Forced : No
Audio #1
ID : 2
Format : AC-3
Format/Info : Audio Coding 3
Commercial name : Dolby Digital
Codec ID : A_AC3
Duration : 2 h 50 min
Bit rate mode : Constant
Bit rate : 448 kb/s
Channel(s) : 6 channels
Channel layout : L R C LFE Ls Rs
Sampling rate : 48.0 kHz
Frame rate : 31.250 FPS (1536 SPF)
Compression mode : Lossy
Stream size : 547 MiB (3%)
Title : Dub
Language : Russian
Service kind : Complete Main
Default : Yes
Forced : No
Audio #2
ID : 3
Format : AC-3
Format/Info : Audio Coding 3
Commercial name : Dolby Digital
Codec ID : A_AC3
Duration : 2 h 50 min
Bit rate mode : Constant
Bit rate : 448 kb/s
Channel(s) : 6 channels
Channel layout : L R C LFE Ls Rs
Sampling rate : 48.0 kHz
Frame rate : 31.250 FPS (1536 SPF)
Compression mode : Lossy
Stream size : 547 MiB (3%)
Title : MVO (Inter)
Language : Russian
Service kind : Complete Main
Default : No
Forced : No
Audio #3
ID : 4
Format : AC-3
Format/Info : Audio Coding 3
Commercial name : Dolby Digital
Codec ID : A_AC3
Duration : 2 h 50 min
Bit rate mode : Constant
Bit rate : 448 kb/s
Channel(s) : 6 channels
Channel layout : L R C LFE Ls Rs
Sampling rate : 48.0 kHz
Frame rate : 31.250 FPS (1536 SPF)
Compression mode : Lossy
Stream size : 547 MiB (3%)
Title : Original
Language : English
Service kind : Complete Main
Default : No
Forced : No
Text #1
ID : 5
Format : UTF-8
Codec ID : S_TEXT/UTF8
Codec ID/Info : UTF-8 Plain Text
Duration : 2 h 45 min
Bit rate : 0 b/s
Count of elements : 17
Stream size : 925 Bytes (0%)
Title : Forced
Language : Russian
Default : Yes
Forced : No
Text #2
ID : 6
Format : UTF-8
Codec ID : S_TEXT/UTF8
Codec ID/Info : UTF-8 Plain Text
Duration : 2 h 33 min
Bit rate : 5 b/s
Count of elements : 126
Stream size : 6.29 KiB (0%)
Title : Extended
Language : Russian
Default : No
Forced : No
Text #3
ID : 7
Format : UTF-8
Codec ID : S_TEXT/UTF8
Codec ID/Info : UTF-8 Plain Text
Duration : 2 h 45 min
Bit rate : 57 b/s
Count of elements : 1377
Stream size : 69.3 KiB (0%)
Title : Full
Language : Russian
Default : No
Forced : No
Text #4
ID : 8
Format : UTF-8
Codec ID : S_TEXT/UTF8
Codec ID/Info : UTF-8 Plain Text
Duration : 2 h 40 min
Bit rate : 35 b/s
Count of elements : 1364
Stream size : 41.5 KiB (0%)
Title : Full
Language : English
Default : No
Forced : No
Text #5
ID : 9
Format : UTF-8
Codec ID : S_TEXT/UTF8
Codec ID/Info : UTF-8 Plain Text
Duration : 2 h 41 min
Bit rate : 38 b/s
Count of elements : 1626
Stream size : 45.5 KiB (0%)
Title : SDH
Language : English
Default : No
Forced : No
Text #6
ID : 10
Format : UTF-8
Codec ID : S_TEXT/UTF8
Codec ID/Info : UTF-8 Plain Text
Duration : 2 h 46 min
Bit rate : 177 b/s
Count of elements : 2866
Stream size : 217 KiB (0%)
Title : Commentary (Ridley Scott, Russell Crowe)
Language : Russian
Default : No
Forced : No
Menu
00: 00: 00.000 : en: Far from Home (Main Title)
00: 07: 13.308 : en: Hell Unleashed
00: 12: 50.103 : en: You Have Missed the War
00: 18: 44.790 : en: A Pleasant Fiction
00: 23: 29.325 : en: One More Duty
00: 32: 58.393 : en: You Will Not Be Emperor
00: 37: 34.878 : en: Hail Caesar
00: 40: 50.740 : en: A Soldier\'s Death
00: 47: 32.725 : en: Mark of the Legion
00: 51: 35.843 : en: Gladiators, I Salute You
00: 55: 44.383 : en: Battle in Chains
01: 02: 21.279 : en: The Greatness of Rome
01: 09: 56.984 : en: Win the Crowd
01: 19: 08.285 : en: I Shall Cheer for You
01: 29: 21.648 : en: The Battle of Carthage
01: 37: 11.784 : en: My Name Is Gladiator
01: 41: 35.798 : en: Terribly Vexed
01: 51: 58.837 : en: A Man for the People
01: 56: 36.281 : en: Maximus the Merciful
02: 00: 43.486 : en: You Simply Won\'t Die
02: 04: 42.225 : en: The Last Wish of a Dying Man
02: 12: 19.014 : en: I\'m an Entertainer
02: 13: 32.588 : en: Busy Little Bee
02: 24: 15.438 : en: Shadows and Dust
02: 28: 48.670 : en: Am I Not Merciful?
02: 34: 20.751 : en: Death Smiles at Us All
02: 38: 43.555 : en: Home Again
02: 42: 57.726 : en: Now We Are Free (End Credits)
Рейтинг →
 (голосов: 1, оценка 4/5, голосовать можно 1 раз )

Другие торренты по теме:

  • Гладиатор / Gladiator (2000) HDTVRip [open matte] [h264] [AVO]
  • Гладиатор / Gladiator (2000) BDRemux [H.264 / 1080p] REMASTERED [Extended Cut] [10th Anniversary Edition] скачать через торрент бесплатно
  • Гладиатор / Gladiator (2000) BDRip [H.264 / 1080p] [10th Anniversary Remastered Edition] [Theatrical & Extended Cut] скачать через торрент бесплатно
  • Гладиатор / Gladiator (2000) BDRip [H.264 / 720p] [Extended Cut]
  • Гладиатор / Gladiator [10th Anniversary Remastered Edition] [Extended Cut] (2000) BDRip [H.265 / 1080p]
  • Гладиатор / Gladiator (1992) WEB-DLRip
  • Гладиатор / Gladiator (2000) HDTVRip [H.264 / 720p] [Open Matte] [Extended Cut]
  • Гладиатор / Gladiator (2000) BDRip [H.264 / 1080p] [10th Anniversary Remastered Edition] [Extended Cut]


    • Комментарии (0):

      Информация

      Информация

        Посетители, находящиеся в группе Гости, не могут оставлять комментарии в данной новости.