Подписывайся на наш канал в Telegram https://t.me/torrentok и получи доступ к торрентам без ограничений!
.
Авторизация | Регистрация
torrent123.club


Алита: Боевой ангел / Alita: Battle Angel (2019) Hybrid [H.264 / 1080p] [Open Matte] [PR] торрент скачать бесплатно

Дата: 9-04-2020, 05:01 | .torrent скачали: 0

Алита: Боевой ангел / Alita: Battle Angel (2019) Hybrid [H.264 / 1080p] [Open Matte] [PR]Производство: США/Twentieth Century Fox, Lightstorm Entertainment, Troublemaker Studios
Жанр: фантастика, боевик, триллер, приключения
Режиссер: Роберт Родригес

Актеры
Роза Салазар, Кристоф Вальц, Дженнифер Коннелли, Махершала Али, Эд Скрейн, Джеки Эрл Хейли, Кин Джонсон, Хорхе Лендеборг мл., Лана Кондор, Идара Виктор

Описание

Действие фильма происходит через 300 лет после Великой войны в XXVI веке. Доктор Идо находит останки женщины-киборга. После починки киборг ничего не помнит, но обнаруживает, что в состоянии пользоваться боевыми приемами киборгов. Начинаются поиски утерянных воспоминаний.

Возраст: 16+ (зрителям, достигшим 16 лет)
Рейтинг MPAA: PG-13 (детям до 13 лет просмотр нежелателен)
Продолжительность: 02: 01: 57
Качество видео: Hybrid 1080p
Перевод: Дублированный
Субтитры: русские, английские
Видео: AVC/H.264, 1920x1080, ~18.1 mbps
Аудио 1: AC3, 6 ch, 640 kbps, Русский (DUB Blu-Ray CEE)
Аудио 2: DTS ES, 7 ch, 1509 kbps, Английский
Общее
Уникальный идентификатор : 170783188254933252395180123955358411876 (0x807BA547BBAABAAFADCCCA79D8792C64)
Полное имя : D: FILMSZALIVAlita.Battle.Angel.2019.Open.Matte.Hybrid.1080p.mkv
Формат : Matroska
Версия формата : Version 4
Размер файла : 17, 3 Гбайт
Продолжительность : 2 ч. 1 м.
Общий поток : 20, 3 Мбит/сек
Дата кодирования : UTC 2020-04-08 00: 03: 52
Программа кодирования : mkvmerge v8.2.0 (\'World of Adventure\') 64bit
Библиотека кодирования : libebml v1.3.1 + libmatroska v1.4.2
Видео
Идентификатор : 1
Формат : AVC
Формат/Информация : Advanced Video Codec
Профиль формата : High@L4.1
Настройки формата : CABAC/4 Ref Frames
Параметр CABAC формата : Да
Параметр RefFrames формата : 4 кадра
Идентификатор кодека : V_MPEG4/ISO/AVC
Продолжительность : 2 ч. 1 м.
Битрейт : 18, 1 Мбит/сек
Ширина : 1 920 пикселей
Высота : 1 080 пикселей
Соотношение сторон : 16: 9
Режим частоты кадров : Постоянный
Частота кадров : 23, 976 (24000/1001) кадра/сек
Цветовое пространство : YUV
Субдискретизация насыщенности : 4: 2: 0
Битовая глубина : 8 бит
Тип развёртки : Прогрессивная
Бит/(Пиксели*Кадры) : 0.364
Размер потока : 15, 4 Гбайт (89%)
Библиотека кодирования : x264 core 157 r2969 d4099dd
Настройки программы : cabac=1/ref=4/deblock=1: 0: 0/analyse=0x3: 0x133/me=umh/subme=9/psy=1/psy_rd=1.00: 0.00/mixed_ref=1/me_range=28/chroma_me=1/trellis=2/8x8dct=1/cqm=0/deadzone=21, 11/fast_pskip=1/chroma_qp_offset=-2/threads=6/lookahead_threads=1/sliced_threads=0/nr=0/decimate=1/interlaced=0/bluray_compat=0/constrained_intra=0/bframes=5/b_pyramid=2/b_adapt=1/b_bias=0/direct=1/weightb=1/open_gop=0/weightp=2/keyint=240/keyint_min=23/scenecut=40/intra_refresh=0/rc_lookahead=50/rc=crf/mbtree=1/crf=15.3/qcomp=0.60/qpmin=0/qpmax=69/qpstep=4/vbv_maxrate=62500/vbv_bufsize=78125/crf_max=0.0/nal_hrd=none/filler=0/ip_ratio=1.40/aq=1: 1.00
Default : Да
Forced : Нет
Аудио #1
Идентификатор : 2
Формат : AC-3
Формат/Информация : Audio Coding 3
Коммерческое название : Dolby Digital
Идентификатор кодека : A_AC3
Продолжительность : 2 ч. 1 м.
Вид битрейта : Постоянный
Битрейт : 640 Кбит/сек
Каналы : 6 каналов
Channel layout : L R C LFE Ls Rs
Частота : 48, 0 КГц
Частота кадров : 31, 250 кадров/сек (1536 SPF)
Метод сжатия : С потерями
Размер потока : 558 Мбайт (3%)
Заголовок : Dub - Blu-Ray CEE | AC3 5.1 @ 640 kbps
Язык : Russian
Service kind : Complete Main
Default : Да
Forced : Нет
Аудио #2
Идентификатор : 3
Формат : DTS ES
Формат/Информация : Digital Theater Systems
Коммерческое название : DTS-ES Matrix
Идентификатор кодека : A_DTS
Продолжительность : 2 ч. 1 м.
Вид битрейта : Постоянный
Битрейт : 1 509 Кбит/сек
Каналы : 6 каналов
Channel(s)_Original : 7 каналов
ChannelLayout_Original : C L R Ls Rs Cs LFE
Частота : 48, 0 КГц
Частота кадров : 93, 750 кадра/сек (512 SPF)
Битовая глубина : 24 бит
Метод сжатия : С потерями
Размер потока : 1, 29 Гбайт (7%)
Заголовок : Original - Blu-Ray | DTS-ES 5.1 @ 1509 kbps
Язык : English
Default : Нет
Forced : Нет
Текст #1
Идентификатор : 4
Формат : UTF-8
Идентификатор кодека : S_TEXT/UTF8
Идентификатор кодека/Информация : UTF-8 Plain Text
Продолжительность : 2 с. 544 мс.
Битрейт : 251 бит/сек
Count of elements : 1
Размер потока : 80, 0 байт (0%)
Заголовок : Forced
Язык : Russian
Default : Нет
Forced : Нет
Текст #2
Идентификатор : 5
Формат : UTF-8
Идентификатор кодека : S_TEXT/UTF8
Идентификатор кодека/Информация : UTF-8 Plain Text
Продолжительность : 2 ч. 1 м.
Битрейт : 60 бит/сек
Count of elements : 1056
Размер потока : 54, 2 Кбайт (0%)
Заголовок : Full - Blu-Ray
Язык : Russian
Default : Нет
Forced : Нет
Текст #3
Идентификатор : 6
Формат : UTF-8
Идентификатор кодека : S_TEXT/UTF8
Идентификатор кодека/Информация : UTF-8 Plain Text
Продолжительность : 1 ч. 56 м.
Битрейт : 64 бит/сек
Count of elements : 1318
Размер потока : 55, 4 Кбайт (0%)
Заголовок : Full - FOCS
Язык : Russian
Default : Нет
Forced : Нет
Текст #4
Идентификатор : 7
Формат : UTF-8
Идентификатор кодека : S_TEXT/UTF8
Идентификатор кодека/Информация : UTF-8 Plain Text
Продолжительность : 1 ч. 55 м.
Битрейт : 41 бит/сек
Count of elements : 1347
Размер потока : 34, 9 Кбайт (0%)
Заголовок : Full - Eng
Язык : English
Default : Нет
Forced : Нет
Текст #5
Идентификатор : 8
Формат : UTF-8
Идентификатор кодека : S_TEXT/UTF8
Идентификатор кодека/Информация : UTF-8 Plain Text
Продолжительность : 1 ч. 55 м.
Битрейт : 46 бит/сек
Count of elements : 1588
Размер потока : 39, 2 Кбайт (0%)
Заголовок : SDH - Eng
Язык : English
Default : Нет
Forced : Нет
Меню
00: 00: 00.000 : en: Chapter 01
00: 03: 28.625 : en: Chapter 02
00: 07: 51.680 : en: Chapter 03
00: 10: 07.982 : en: Chapter 04
00: 13: 06.703 : en: Chapter 05
00: 15: 06.739 : en: Chapter 06
00: 18: 04.542 : en: Chapter 07
00: 22: 58.711 : en: Chapter 08
00: 25: 35.325 : en: Chapter 09
00: 31: 40.899 : en: Chapter 10
00: 33: 29.216 : en: Chapter 11
00: 36: 32.816 : en: Chapter 12
00: 38: 30.892 : en: Chapter 13
00: 42: 05.481 : en: Chapter 14
00: 45: 58.214 : en: Chapter 15
00: 48: 31.450 : en: Chapter 16
00: 52: 57.007 : en: Chapter 17
00: 55: 14.353 : en: Chapter 18
01: 00: 39.761 : en: Chapter 19
01: 02: 56.564 : en: Chapter 20
01: 05: 16.788 : en: Chapter 21
01: 10: 50.496 : en: Chapter 22
01: 13: 37.288 : en: Chapter 23
01: 16: 35.216 : en: Chapter 24
01: 18: 52.227 : en: Chapter 25
01: 22: 48.297 : en: Chapter 26
01: 24: 55.340 : en: Chapter 27
01: 28: 25.217 : en: Chapter 28
01: 33: 18.551 : en: Chapter 29
01: 36: 08.763 : en: Chapter 30
01: 41: 54.692 : en: Chapter 31
01: 45: 23.442 : en: Chapter 32
01: 48: 16.490 : en: Chapter 33
01: 51: 43.655 : en: Chapter 34
01: 54: 43.668 : en: Chapter 35
01: 56: 51.504 : en: Chapter 36
Рейтинг →
 (голосов: 1, оценка 3/5, голосовать можно 1 раз )

Другие торренты по теме:

  • Алита: Боевой ангел / Alita: Battle Angel (2019) CamRip [MVO] [AD]
  • Пэт Кэдиган | Алита: Боевой ангел. Айрон сити (2019) [MP3]
  • Пэт Кэдиган | Алита. Боевой ангел. Айрон Сити (2019) [FB2]
  • Пэт Кэдиган | Алита. Боевой ангел (2019) [FB2]
  • Пэт Кэдиган | Алита. Боевой ангел (2019) [MP3]
  • Алита: Боевой ангел / Alita: Battle Angel (2019) WEBRip [MVO] [AD]
  • Алита: Боевой ангел / Alita: Battle Angel (2019) WEBRip [H.264 / 1080p-LQ] [MVO] [AD]
  • Алита: Боевой ангел / Alita: Battle Angel (2019) TS [H.264] [MP4|1280x604] [AD]


    • Комментарии (0):

      Информация

      Информация

        Посетители, находящиеся в группе Гости, не могут оставлять комментарии в данной новости.