Подписывайся на наш канал в Telegram https://t.me/torrentok и получи доступ к торрентам без ограничений!
.
Авторизация | Регистрация
torrent123.club


Плохие парни навсегда / Bad Boys for Life (2020) BDRip [H.264 / 1080p-LQ] [hand made 16:9] торрент скачать бесплатно

Дата: 10-04-2020, 05:01 | .torrent скачали: 1

Плохие парни навсегда / Bad Boys for Life (2020) BDRip [H.264 / 1080p-LQ] [hand made 16:9]Производство: США, Мексика/Columbia Pictures, 2.0 Entertainment
Жанр: Боевик, триллер, комедия, криминал
Режиссер: Адиль Эль Арби, Билал Фалла

Актеры
Уилл Смит, Мартин Лоуренс, Ванесса Энн Хадженс, Александр Людвиг, Чарльз Мелтон, Паола Нуньес, Кейт дель Кастильо, Ники Джем, Джо Пантольяно, Джейкоб Скип

Описание

Детективы Майк Лоури и Маркус Бёрнетт снова в деле! Правда, их отстраняют от всех операций, но разве отчаянных друзей когда-нибудь что-либо останавливало? Ведь на этот раз на Майка открывает охоту некто из его прошлой жизни. Так что парням придется отжечь по полной!

Возраст: 18+ (зрителям, достигшим 18 лет. запрещено для детей)
Рейтинг MPAA: R (лицам до 17 лет обязательно присутствие взрослого)
Дата мировой премьеры: 7 января 2020
Дата российской премьеры: 23 января 2020, СППР
Релиз от: SergeyAms
Продолжительность: 02: 03: 58
Качество видео: BDRip
Перевод: Дублированный (iTunes)
Субтитры: Русские (форс., полные), английские (полные)
Видео: AVC/H.264, 1920x1080, ~5 Mbps
Аудио #1: AC3, 6 ch, 384 Kbps - Русский дубляж
Аудио #2: DTS, 6 ch, 768 Kbps - Английский
x264 info: frame I: 1360 Avg QP: 17.98 size: 116999
x264 info: frame P: 58030 Avg QP: 19.63 size: 46140
x264 info: frame B: 118954 Avg QP: 22.13 size: 15181
General
Unique ID : 330837570636581434177934843204308680745 (0xF8E4FF974182FE258B99431E65E5C029)
Complete name : D: TempNNMBad.Boys.for.Life.2020.1080p.mkv
Format : Matroska
Format version : Version 4/Version 2
File size : 5.33 GiB
Duration : 2h 3mn
Overall bit rate : 6 154 Kbps
Movie name : Bad Boys for Life 2020
Writing library : Lavf57.71.100
Video
ID : 1
Format : AVC
Format/Info : Advanced Video Codec
Format profile : High@L4.1
Format settings, CABAC : Yes
Format settings, ReFrames : 4 frames
Codec ID : V_MPEG4/ISO/AVC
Duration : 2h 3mn
Bit rate : 5 000 Kbps
Width : 1 920 pixels
Height : 1 080 pixels
Display aspect ratio : 16: 9
Frame rate mode : Constant
Frame rate : 23.976 fps
Color space : YUV
Chroma subsampling : 4: 2: 0
Bit depth : 8 bits
Scan type : Progressive
Bits/(Pixel*Frame) : 0.101
Stream size : 4.23 GiB (79%)
Writing library : x264 core 157 r2935 545de2f
Encoding settings : cabac=1/ref=4/deblock=1: -2: -2/analyse=0x3: 0x113/me=umh/subme=9/psy=1/psy_rd=1.05: 0.10/mixed_ref=1/me_range=24/chroma_me=1/trellis=2/8x8dct=1/cqm=0/deadzone=21, 11/fast_pskip=0/chroma_qp_offset=-3/threads=5/lookahead_threads=1/sliced_threads=0/nr=0/decimate=0/interlaced=0/bluray_compat=0/constrained_intra=0/bframes=6/b_pyramid=2/b_adapt=2/b_bias=0/direct=1/weightb=1/open_gop=0/weightp=2/keyint=240/keyint_min=24/scenecut=40/intra_refresh=0/rc=2pass/mbtree=0/bitrate=5000/ratetol=1.0/qcomp=0.70/qpmin=3/qpmax=69/qpstep=4/cplxblur=20.0/qblur=0.5/ip_ratio=1.40/pb_ratio=1.30/aq=2: 1.00
Language : English
Default : Yes
Forced : No
Audio #1
ID : 2
Format : AC-3
Format/Info : Audio Coding 3
Mode extension : CM (complete main)
Format settings, Endianness : Big
Codec ID : A_AC3
Duration : 2h 3mn
Bit rate mode : Constant
Bit rate : 384 Kbps
Channel(s) : 6 channels
Channel positions : Front: L C R, Side: L R, LFE
Sampling rate : 48.0 KHz
Bit depth : 16 bits
Compression mode : Lossy
Stream size : 341 MiB (6%)
Title : Dub iTunes
Language : Russian
Default : Yes
Forced : Yes
Audio #2
ID : 3
Format : DTS
Format/Info : Digital Theater Systems
Mode : 16
Format settings, Endianness : Big
Codec ID : A_DTS
Duration : 2h 3mn
Bit rate mode : Constant
Bit rate : 768 Kbps
Channel(s) : 6 channels
Channel positions : Front: L C R, Side: L R, LFE
Sampling rate : 48.0 KHz
Bit depth : 16 bits
Compression mode : Lossy
Stream size : 681 MiB (12%)
Title : Original
Language : English
Default : Yes
Forced : No
Text #1
ID : 4
Format : UTF-8
Codec ID : S_TEXT/UTF8
Codec ID/Info : UTF-8 Plain Text
Title : Forced
Language : Russian
Default : Yes
Forced : Yes
Text #2
ID : 5
Format : UTF-8
Codec ID : S_TEXT/UTF8
Codec ID/Info : UTF-8 Plain Text
Title : Full
Language : Russian
Default : Yes
Forced : No
Text #3
ID : 6
Format : UTF-8
Codec ID : S_TEXT/UTF8
Codec ID/Info : UTF-8 Plain Text
Language : English
Default : No
Forced : No

Скриншоты для ознакомления



Все одноименные релизы в Клубе
Время раздачи: 24/7 (до появления 3-5 скачавших)
Рейтинг →
 (голосов: 1, оценка 4/5, голосовать можно 1 раз )

Другие торренты по теме:

  • Плохие парни / Bad Boys (1995) BDRip [h.264]
  • Плохие парни 2 / Bad Boys II (2003) WEB-DLRip [h.264]
  • Плохие парни 2 / Bad Boys II (2003) BDRip [H.264 / 1080р] скачать через торрент бесплатно
  • Плохие парни 2 / Bad Boys II (2003) BDRemux [H.264 / 1080р] скачать через торрент бесплатно
  • Плохие парни 2 / Bad Boys II (2003) BDRip [H.264 / 720р] скачать через торрент бесплатно
  • Плохие парни / Bad Boys (1995-2003) BDRemux [H.264 / 1080p] [4K Remastered] [Дилогия] скачать через торрент бесплатно
  • Плохие парни / Bad Boys (1995) BDRip [H.264] [Remastered] скачать через торрент бесплатно
  • Плохие парни 2 / Bad Boys II (2003) BDRip [H.264] [Remastered] скачать через торрент бесплатно


    • Комментарии (0):

      Информация

      Информация

        Посетители, находящиеся в группе Гости, не могут оставлять комментарии в данной новости.