Подписывайся на наш канал в Telegram https://t.me/torrentok и получи доступ к торрентам без ограничений!
.
Авторизация | Регистрация
torrent123.club


21 мост / 21 Bridges (2019) BDRip [H.264 / 1080p] [hand made 60fps] торрент скачать бесплатно

Дата: 18-04-2020, 05:01 | .torrent скачали: 0

21 мост / 21 Bridges (2019) BDRip [H.264 / 1080p] [hand made 60fps]Производство: США/AGBO, Huayi Brothers, MWM Studios
Жанр: боевик, криминал, триллер
Режиссер: Брайан Кирк

Актеры
Чэдвик Боузмэн, Сиенна Миллер, Тейлор Китч, Дж.К. Симмонс, Стэфан Джеймс, Кит Дэвид, Александр Сиддиг, Луис Канселми, Виктория Картахена, Гари Карр

Описание
Потомственный полицейский Андре Дэвис с самыми высокими показателями раскрываемости преступлений находится под внутренним расследованием, но, тем не менее, его привлекают к поимке двух опасных преступников. Те совершили дерзкое ограбление на Манхэттене и, оставив после себя 7 мёртвых полицейских, пустились в бега. У Дэвиса есть только одна ночь, чтобы поймать убийц, и первым делом он распоряжается перекрыть все выходы с Манхэттена, в том числе 21 мост.

Возраст: 16+ (зрителям, достигшим 16 лет)
Рейтинг MPAA: R (лицам до 17 лет обязательно присутствие взрослого)
Дата мировой премьеры: 25 сентября 2019
Дата российской премьеры: 5 декабря 2019, MEGOGO Distribution
Продолжительность: 01: 39: 57
Качество видео: BDRip
Перевод: Дублированный (iTunes)
Субтитры: Отсутствуют
Видео: HEVC/H.264, 1920x800, ~12.0 Mbps
Аудио 1: AC3, 6 ch, 384 Kbps - Русский
Аудио 2: AC3, 6 ch, 640 Kbps - Английский
General
Unique ID : 222912973406898079692579592001973720210 (0xA7B37A1FCBDEB8D29BA05E86FFFD1492)
Complete name : E: 21Bridges_2019_BDRip.1080p.60fps.mkv
Format : Matroska
Format version : Version 2
File size : 9.08 GiB
Duration : 1 h 39 min
Overall bit rate : 13.0 Mb/s
Movie name : 21Bridges_2019_BDRip.1080p.60fps
Encoded date : UTC 2020-04-17 18: 13: 35
Writing application : mkvmerge v5.0.1 (\'Es ist Sommer\') built on Oct 9 2011 11: 55: 43
Writing library : libebml v1.2.2 + libmatroska v1.3.0
Attachments : poster.jpg
Video
ID : 1
Format : AVC
Format/Info : Advanced Video Codec
Format profile : High@L4.1
Format settings : CABAC/5 Ref Frames
Format settings, CABAC : Yes
Format settings, Reference : 5 frames
Codec ID : V_MPEG4/ISO/AVC
Duration : 1 h 39 min
Bit rate : 12.0 Mb/s
Width : 1 920 pixels
Height : 800 pixels
Display aspect ratio : 2.40: 1
Frame rate mode : Constant
Frame rate : 59.940 (60000/1001) FPS
Color space : YUV
Chroma subsampling : 4: 2: 0
Bit depth : 8 bits
Scan type : Progressive
Bits/(Pixel*Frame) : 0.130
Stream size : 8.18 GiB (90%)
Title : ®.W.@.
Writing library : x264 core 146 r2538 121396c
Encoding settings : cabac=1/ref=5/deblock=1: -2: -2/analyse=0x3: 0x113/me=umh/subme=9/psy=1/psy_rd=1.00: 0.25/mixed_ref=1/me_range=32/chroma_me=1/trellis=2/8x8dct=1/cqm=0/deadzone=6, 6/fast_pskip=1/chroma_qp_offset=-4/threads=12/lookahead_threads=2/sliced_threads=0/nr=0/decimate=0/interlaced=0/bluray_compat=0/constrained_intra=0/bframes=8/b_pyramid=2/b_adapt=2/b_bias=0/direct=3/weightb=1/open_gop=0/weightp=2/keyint=599/keyint_min=60/scenecut=40/intra_refresh=0/rc_lookahead=60/rc=2pass/mbtree=1/bitrate=12000/ratetol=1.0/qcomp=0.80/qpmin=0/qpmax=69/qpstep=4/cplxblur=20.0/qblur=0.5/vbv_maxrate=50000/vbv_bufsize=65000/nal_hrd=none/filler=0/ip_ratio=1.10/aq=1: 0.50
Language : English
Default : Yes
Forced : No
Statistics Tags Issue : mkvmerge v22.0.0 (\'At The End Of The World\') 64-bit 2020-02-10 19: 03: 11/mkvmerge v5.0.1 (\'Es ist Sommer\') built on Oct 9 2011 11: 55: 43 2020-04-17 18: 13: 35
FromStats_BitRate : 11977466
FromStats_Duration : 01: 39: 56.958000000
FromStats_FrameCount : 359458
FromStats_StreamSize : 8978545272
Audio #1
ID : 2
Format : AC-3
Format/Info : Audio Coding 3
Commercial name : Dolby Digital
Codec ID : A_AC3
Duration : 1 h 39 min
Bit rate mode : Constant
Bit rate : 384 kb/s
Channel(s) : 6 channels
Channel layout : L R C LFE Ls Rs
Sampling rate : 48.0 kHz
Frame rate : 31.250 FPS (1536 SPF)
Compression mode : Lossy
Stream size : 275 MiB (3%)
Title : (iTunes)
Language : Russian
Service kind : Complete Main
Default : Yes
Forced : Yes
Statistics Tags Issue : mkvmerge v22.0.0 (\'At The End Of The World\') 64-bit 2020-02-10 19: 03: 11/mkvmerge v5.0.1 (\'Es ist Sommer\') built on Oct 9 2011 11: 55: 43 2020-04-17 18: 13: 35
FromStats_BitRate : 384000
FromStats_Duration : 01: 39: 57.024000000
FromStats_FrameCount : 187407
FromStats_StreamSize : 287857152
Audio #2
ID : 3
Format : AC-3
Format/Info : Audio Coding 3
Commercial name : Dolby Digital
Codec ID : A_AC3
Duration : 1 h 39 min
Bit rate mode : Constant
Bit rate : 640 kb/s
Channel(s) : 6 channels
Channel layout : L R C LFE Ls Rs
Sampling rate : 48.0 kHz
Frame rate : 31.250 FPS (1536 SPF)
Compression mode : Lossy
Stream size : 458 MiB (5%)
Title : Original
Language : English
Service kind : Complete Main
Default : No
Forced : No
Statistics Tags Issue : mkvmerge v22.0.0 (\'At The End Of The World\') 64-bit 2020-02-10 19: 03: 11/mkvmerge v5.0.1 (\'Es ist Sommer\') built on Oct 9 2011 11: 55: 43 2020-04-17 18: 13: 35
FromStats_BitRate : 640000
FromStats_Duration : 01: 39: 57.024000000
FromStats_FrameCount : 187407
FromStats_StreamSize : 479761920
Menu
00: 00: 00.000 : : Chapter 01
00: 03: 16.196 : : Chapter 02
00: 07: 48.510 : : Chapter 03
00: 11: 59.344 : : Chapter 04
00: 16: 54.722 : : Chapter 05
00: 22: 33.143 : : Chapter 06
00: 30: 54.561 : : Chapter 07
00: 34: 50.046 : : Chapter 08
00: 40: 16.414 : : Chapter 09
00: 44: 39.719 : : Chapter 10
00: 50: 54.718 : : Chapter 11
00: 54: 04.408 : : Chapter 12
00: 58: 52.320 : : Chapter 13
01: 02: 08.600 : : Chapter 14
01: 06: 19.601 : : Chapter 15
01: 10: 27.557 : : Chapter 16
01: 16: 19.617 : : Chapter 17
01: 19: 19.755 : : Chapter 18
01: 25: 15.110 : : Chapter 19
01: 32: 34.382 : : Chapter 20
Скриншоты для ознакомления



Все одноименные релизы в Клубе
Время раздачи: 24/7 (до появления первых 3-5 скачавших)
Рейтинг →
 (голосов: 1, оценка 3/5, голосовать можно 1 раз )

Другие торренты по теме:

  • 21 мост / 21 Bridges (2019) WEB-DLRip
  • 21 мост / 21 Bridges (2019) WEB-DLRip [H.265] [10-bit] [PR]
  • 21 мост / 21 Bridges (2019) WEB-DLRip
  • 21 мост / 21 Bridges (2019) WEB-DL [H.264 / 1080p-LQ]
  • 21 мост / 21 Bridges (2019) WEB-DL [H.264 / 720p]
  • 21 мост / 21 Bridges (2019) WEB-DL [H.264 / 1080p]
  • 21 мост / 21 Bridges (2019) WEB-DL [1080p] ATV
  • 21 мост / 21 Bridges (2019) BDRip [H.264 / 720p] [PR]


    • Комментарии (0):

      Информация

      Информация

        Посетители, находящиеся в группе Гости, не могут оставлять комментарии в данной новости.