Подписывайся на наш канал в Telegram https://t.me/torrentok и получи доступ к торрентам без ограничений!
.
Авторизация | Регистрация
torrent123.club


Мидуэй / Midway (2019) BDRip [H.264 / 1080p] [hand made 60fps] торрент скачать бесплатно

Дата: 18-04-2020, 05:01 | .torrent скачали: 1

Мидуэй / Midway (2019) BDRip [H.264 / 1080p] [hand made 60fps]Производство: США, Гонконг, Канада, Китай/RuYi Media
Жанр: Военный, боевик, история
Режиссер: Роланд Эммерих

Актеры
Эд Скрейн, Патрик Уилсон, Вуди Харрельсон, Люк Эванс, Мэнди Мур, Люк Клеинтенк, Дэннис Куэйд, Аарон Экхарт, Киан Джонсон, Ник Джонас

Описание

История одного из самых масштабных и стратегически важных морских сражений на Тихом океане Второй мировой войны. После разгрома японской авиацией большей части флота США в Перл-Харборе до этого придерживавшаяся нейтралитета Америка вступает в войну. В июне 1942 года остатки американского флота под командованием адмирала Честера Нимица сражаются с Императорским флотом Японии у атолла Мидуэй.

Возраст: 16+ (зрителям, достигшим 16 лет)
Рейтинг MPAA: PG-13 (детям до 13 лет просмотр нежелателен)
Дата мировой премьеры: 24 октября 2019
Дата российской премьеры: 14 ноября 2019, Централ Партнершип
Продолжительность: 02: 18: 24
Качество видео: BDRip
Перевод: Дублированный (iTunes)
Субтитры: Русские (форс.), английские (полные, SDH)
Видео: AVC/H.264, 1920x800, ~15.0 Mbps
Аудио #1: AC3, 6 ch, 384 Kbps - Русский
Аудио #2: AC3, 6 ch, 640 Kbps - Английский
General
Unique ID : 232316751633385197256361944930447971829 (0xAEC6942FDD4128FB82B910ED5DBAD5F5)
Complete name : E: Midway(2019)BDRip.1080p.60fps.mkv
Format : Matroska
Format version : Version 2
File size : 15.5 GiB
Duration : 2 h 18 min
Overall bit rate : 16.0 Mb/s
Movie name : Midway(2019)BDRip.1080p.60fps
Encoded date : UTC 2020-04-17 15: 39: 05
Writing application : mkvmerge v5.0.1 (\'Es ist Sommer\') built on Oct 9 2011 11: 55: 43
Writing library : libebml v1.2.2 + libmatroska v1.3.0
Attachments : poster.png
Video
ID : 1
Format : AVC
Format/Info : Advanced Video Codec
Format profile : High@L4.1
Format settings : CABAC/5 Ref Frames
Format settings, CABAC : Yes
Format settings, Reference : 5 frames
Codec ID : V_MPEG4/ISO/AVC
Duration : 2 h 18 min
Bit rate : 15.0 Mb/s
Width : 1 920 pixels
Height : 800 pixels
Display aspect ratio : 2.40: 1
Frame rate mode : Constant
Frame rate : 59.940 (60000/1001) FPS
Color space : YUV
Chroma subsampling : 4: 2: 0
Bit depth : 8 bits
Scan type : Progressive
Bits/(Pixel*Frame) : 0.163
Stream size : 14.2 GiB (92%)
Title : Midway(2019)BDRip.1080p.60fps
Writing library : x264 core 146 r2538 121396c
Encoding settings : cabac=1/ref=5/deblock=1: -2: -2/analyse=0x3: 0x113/me=umh/subme=10/psy=1/psy_rd=1.00: 0.25/mixed_ref=1/me_range=32/chroma_me=1/trellis=2/8x8dct=1/cqm=0/deadzone=6, 6/fast_pskip=1/chroma_qp_offset=-4/threads=12/lookahead_threads=2/sliced_threads=0/nr=0/decimate=0/interlaced=0/bluray_compat=0/constrained_intra=0/bframes=8/b_pyramid=2/b_adapt=2/b_bias=0/direct=3/weightb=1/open_gop=0/weightp=2/keyint=599/keyint_min=60/scenecut=40/intra_refresh=0/rc_lookahead=60/rc=2pass/mbtree=1/bitrate=15000/ratetol=1.0/qcomp=0.80/qpmin=0/qpmax=69/qpstep=4/cplxblur=20.0/qblur=0.5/vbv_maxrate=50000/vbv_bufsize=65000/nal_hrd=none/filler=0/ip_ratio=1.10/aq=1: 0.50
Language : English
Default : Yes
Forced : No
Statistics Tags Issue : mkvmerge v22.0.0 (\'At The End Of The World\') 64-bit 2020-02-25 19: 54: 41/mkvmerge v5.0.1 (\'Es ist Sommer\') built on Oct 9 2011 11: 55: 43 2020-04-17 15: 39: 05
FromStats_BitRate : 14966184
FromStats_Duration : 02: 18: 25.264000000
FromStats_FrameCount : 497818
FromStats_StreamSize : 15537263742
Audio #1
ID : 2
Format : AC-3
Format/Info : Audio Coding 3
Commercial name : Dolby Digital
Codec ID : A_AC3
Duration : 2 h 18 min
Bit rate mode : Constant
Bit rate : 384 kb/s
Channel(s) : 6 channels
Channel layout : L R C LFE Ls Rs
Sampling rate : 48.0 kHz
Frame rate : 31.250 FPS (1536 SPF)
Compression mode : Lossy
Stream size : 380 MiB (2%)
Title : Дублированный (iTunes)
Language : Russian
Service kind : Complete Main
Default : Yes
Forced : Yes
Statistics Tags Issue : mkvmerge v22.0.0 (\'At The End Of The World\') 64-bit 2020-02-25 19: 54: 41/mkvmerge v5.0.1 (\'Es ist Sommer\') built on Oct 9 2011 11: 55: 43 2020-04-17 15: 39: 05
FromStats_BitRate : 384000
FromStats_Duration : 02: 18: 26.272000000
FromStats_FrameCount : 259571
FromStats_StreamSize : 398701056
Audio #2
ID : 3
Format : AC-3
Format/Info : Audio Coding 3
Commercial name : Dolby Digital
Codec ID : A_AC3
Duration : 2 h 18 min
Bit rate mode : Constant
Bit rate : 640 kb/s
Channel(s) : 6 channels
Channel layout : L R C LFE Ls Rs
Sampling rate : 48.0 kHz
Frame rate : 31.250 FPS (1536 SPF)
Compression mode : Lossy
Stream size : 634 MiB (4%)
Title : Original
Language : English
Service kind : Complete Main
Default : No
Forced : No
Text #1
ID : 4
Format : UTF-8
Codec ID : S_TEXT/UTF8
Codec ID/Info : UTF-8 Plain Text
Title : Forced
Language : Russian
Default : Yes
Forced : Yes
Statistics Tags Issue : mkvmerge v22.0.0 (\'At The End Of The World\') 64-bit 2020-02-25 19: 54: 41/mkvmerge v5.0.1 (\'Es ist Sommer\') built on Oct 9 2011 11: 55: 43 2020-04-17 15: 39: 05
FromStats_BitRate : 5
FromStats_Duration : 02: 08: 06.719000000
FromStats_FrameCount : 63
FromStats_StreamSize : 4977
Text #2
ID : 5
Format : UTF-8
Codec ID : S_TEXT/UTF8
Codec ID/Info : UTF-8 Plain Text
Title : Full
Language : English
Default : No
Forced : No
Statistics Tags Issue : mkvmerge v22.0.0 (\'At The End Of The World\') 64-bit 2020-02-25 19: 54: 41/mkvmerge v5.0.1 (\'Es ist Sommer\') built on Oct 9 2011 11: 55: 43 2020-04-17 15: 39: 05
FromStats_BitRate : 48
FromStats_Duration : 02: 08: 14.795000000
FromStats_FrameCount : 1590
FromStats_StreamSize : 46930
Text #3
ID : 6
Format : UTF-8
Codec ID : S_TEXT/UTF8
Codec ID/Info : UTF-8 Plain Text
Title : SDH
Language : English
Default : No
Forced : No
Statistics Tags Issue : mkvmerge v22.0.0 (\'At The End Of The World\') 64-bit 2020-02-25 19: 54: 41/mkvmerge v5.0.1 (\'Es ist Sommer\') built on Oct 9 2011 11: 55: 43 2020-04-17 15: 39: 05
FromStats_BitRate : 47
FromStats_Duration : 02: 08: 14.788000000
FromStats_FrameCount : 1657
FromStats_StreamSize : 46134
Menu
00: 00: 00.000 : en: Глава 01
00: 06: 55.832 : en: Глава 02
00: 13: 53.207 : en: Глава 03
00: 20: 24.765 : en: Глава 04
00: 27: 03.330 : en: Глава 05
00: 32: 55.182 : en: Глава 06
00: 40: 35.975 : en: Глава 07
00: 46: 57.732 : en: Глава 08
00: 53: 50.769 : en: Глава 09
01: 01: 12.544 : en: Глава 10
01: 07: 55.113 : en: Глава 11
01: 14: 48.734 : en: Глава 12
01: 21: 41.105 : en: Глава 13
01: 27: 32.038 : en: Глава 14
01: 35: 09.537 : en: Глава 15
01: 42: 11.125 : en: Глава 16
01: 48: 30.671 : en: Глава 17
01: 54: 44.127 : en: Глава 18
02: 02: 23.002 : en: Глава 19
02: 09: 12.787 : en: Глава 20
Скриншоты для ознакомления



Все одноименные релизы в Клубе
Время раздачи: 24/7 (до появления первых 3-5 скачавших)
Рейтинг →
 (голосов: 1, оценка 3/5, голосовать можно 1 раз )

Другие торренты по теме:

  • Мидуэй / Midway (1976) BDRip [H.264 / 720p-LQ] скачать через торрент бесплатно
  • Мидуэй / Midway (2019) CAMRip [MVO] [AD]
  • Мидуэй / Midway (2019) CAMRip [H.264 / 720p-LQ]
  • Мидуэй / Midway (2019) WEBRip [H.264 / 1080p-LQ] [Line]
  • Мидуэй / Midway (2019) WEB-DLRip [H.265] [10-bit] [Line]
  • Мидуэй / Midway (1976) HDRip [H.265] [10-bit]
  • Мидуэй / Midway (2019) BDRip [H.264 / 1080p] [EN / EN Sub] [PR]
  • Мидуэй / Midway (2019) BDRip [H.265 / 1080p] [10-bit] [US Transfer] [PR]


    • Комментарии (0):

      Информация

      Информация

        Посетители, находящиеся в группе Гости, не могут оставлять комментарии в данной новости.