Подписывайся на наш канал в Telegram https://t.me/torrentok и получи доступ к торрентам без ограничений!
.
Авторизация | Регистрация
torrent123.club


Army Of Lovers - The Day The Gods Help Us All (Life After People) (2020) [H.264 / 1080p] торрент скачать бесплатно

Дата: 18-04-2020, 05:01 | .torrent скачали: 3

Army Of Lovers - The Day The Gods Help Us All (Life After People) (2020) [H.264 / 1080p]Жанр: Pop

Описание

01 Army Of Lovers - The Day The Gods Help Us All (Life After People)
Human Population: Zero
Audio: CDA Army Of Lovers - The Day The Gods Help Us All (1993)
+
Video: Life After People (США, 2009)
Дата российской премьеры: 14.04.2020
Релиз от: SandY
Продолжительность: 00: 02: 41
Качество видео: Master
Видео: AVC/H.264, 1920x1072, ~11.2 Mbps
Аудио: AAC, 2 ch, 320 Kbps
General
Complete name : E: VIDEO MUSICMVID FMVArmy Of Lovers - The Day The Gods Help Us All (Life After People) (by SandY) 2020.mp4
Format : MPEG-4
Format profile : Base Media
Codec ID : isom (isom)
File size : 221 MiB
Duration : 2 min 41 s
Overall bit rate mode : Variable
Overall bit rate : 11.5 Mb/s
Movie name : Human Population: Zero
Performer : SandY
Genre : Drama, Pop
ContentType : Music Video
Description : Сидя дома на карантине, я наконец-то решился визуализировать один из своих любимых треков. Сперва хотел слепить что-то масштабное, эпическое (под стать самой песне). Но потом решил не заморачиваться и просто сделал небольшойкорона вирусный рол...
Recorded date : 2020-04-13T11: 34: 16+03: 00
Encoded date : UTC 2020-04-11 11: 22: 50
Tagged date : UTC 2020-04-11 11: 22: 50
Writing application : AMVsimple GUI 3.5_deluxe
Cover : Yes
Lyrics : http://creaspace.ru/videos/video.php?video_id=3659
Comment : Music: Army Of Lovers - The Day The Gods Help Us All/Video: Life After People (2008)
PodcastURL : (Binary)
Video
ID : 1
Format : AVC
Format/Info : Advanced Video Codec
Format profile : High@L4.1
Format settings : CABAC/3 Ref Frames
Format settings, CABAC : Yes
Format settings, Reference frames : 3 frames
Codec ID : avc1
Codec ID/Info : Advanced Video Coding
Duration : 2 min 41 s
Bit rate : 11.2 Mb/s
Maximum bit rate : 35.8 Mb/s
Width : 1 920 pixels
Height : 1 072 pixels
Display aspect ratio : 16: 9
Frame rate mode : Constant
Frame rate : 23.976 (24000/1001) FPS
Color space : YUV
Chroma subsampling : 4: 2: 0
Bit depth : 8 bits
Scan type : Progressive
Bits/(Pixel*Frame) : 0.227
Stream size : 215 MiB (97%)
Writing library : x264 core 79 r1352 d487de4
Encoding settings : cabac=1/ref=3/deblock=1: 0: 0/analyse=0x3: 0x133/me=umh/subme=10/psy=0/mixed_ref=1/me_range=16/chroma_me=1/trellis=2/8x8dct=1/cqm=0/deadzone=21, 11/chroma_qp_offset=0/threads=6/nr=0/decimate=1/mbaff=0/constrained_intra=0/bframes=3/b_pyramid=0/b_adapt=2/b_bias=0/direct=3/wpredb=1/wpredp=2/keyint=250/keyint_min=25/scenecut=40/rc_lookahead=40/rc=crf/mbtree=1/crf=17.0/qcomp=0.60/qpmin=10/qpmax=51/qpstep=4/ip_ratio=1.40/aq=1: 1.00
Encoded date : UTC 2020-04-11 10: 30: 27
Tagged date : UTC 2020-04-11 11: 22: 59
Codec configuration box : avcC
Audio
ID : 2
Format : AAC LC
Format/Info : Advanced Audio Codec Low Complexity
Codec ID : mp4a-40-2
Duration : 2 min 41 s
Bit rate mode : Variable
Bit rate : 288 kb/s
Maximum bit rate : 330 kb/s
Channel(s) : 2 channels
Channel layout : L R
Sampling rate : 44.1 kHz
Frame rate : 43.066 FPS (1024 SPF)
Compression mode : Lossy
Stream size : 5.51 MiB (2%)
Encoded date : UTC 2020-04-11 11: 22: 59
Tagged date : UTC 2020-04-11 11: 22: 59

Скриншоты для ознакомления



Все одноименные релизы в Клубе
Время раздачи: с 08: 00 до 24: 00 (до появления первых 3-5 скачавших)
Рейтинг →
 (голосов: 1, оценка 4/5, голосовать можно 1 раз )

Другие торренты по теме:

  • Army Of Lovers - Les Greatest Hits (1996) [FLAC|tracks+.cue]<Leftfield, Euro House, Disco> скачать через торрент бесплатно
  • Army of Lovers - Massive Luxury Overdose (1992) U.S. Edition [MP3|320 Kbps] <Pop, Disco>
  • Natune - Obsession (2018) Army Of Lovers Cover Remix [MP3|192 Kbps] <Club, Dance>
  • Army of Lovers - Master Series (1997) [FLAC|Lossless|image + .cue] < Disco, Euro House, Synth-pop>


    • Комментарии (0):

      Информация

      Информация

        Посетители, находящиеся в группе Гости, не могут оставлять комментарии в данной новости.