Подписывайся на наш канал в Telegram https://t.me/torrentok и получи доступ к торрентам без ограничений!
.
Авторизация | Регистрация
torrent123.club


Королевство Нейтана / Nathans Kingdom (2018) WEB-DLRip [H.264 / 720p-LQ] [MVO] [AD] торрент скачать бесплатно

Дата: 23-04-2020, 05:00 | .torrent скачали: 0

Королевство Нейтана / Nathans Kingdom (2018) WEB-DLRip [H.264 / 720p-LQ] [MVO] [AD]Производство: США/Moon and Back Films
Жанр: Фантастика, драма, приключения
Режиссер: Olicer J. Muñoz

Актеры
Мэдисон Форд, Jacob Lince, Питер Мендоса, Джон Фридом Генри, Сэмюэл Муноз, Дмитриус Бистревски, Sarah Assumma, Кристабель Риверо, Джонатан Нейшн, Лаура Росас

Описание

Драма о двадцатипятилетнем парне, который живет со своей младшей сестрой. Вместе они отправляются на поиски таинственного королевства в надежде, что это укрепит их отношения.

Продолжительность: 01: 33: 55
Качество видео: WEB-DLRip
Перевод: Многоголосый закадровый, профессиональный (Синема УС)
Субтитры: Отсутствуют
Реклама: Присутствует баннер.
Видео: AVC/H.264, 1280x536, ~5282 Kbps
Аудио: AC-3, 2 ch, 384 Kbps
Общее
Полное имя : D: NNMКоролевство НейтанаNathans.Kingdom.2019.WEB-DLRip.720p-LQ.mkv
Формат : Matroska
Версия формата : Version 2
Размер файла : 3, 72 Гбайт
Продолжительность : 1 ч. 32 м.
Режим общего битрейта : Переменный
Общий поток : 5781 Кбит/сек
Программа кодирования : libmatroska 1.4.1
Библиотека кодирования : SolveigMM Matroska Muxer Version 1.0.1502.31
Видео
Идентификатор : 1
Формат : AVC
Формат/Информация : Advanced Video Codec
Профиль формата : High@L4.1
Настройки формата : CABAC/4 Ref Frames
Параметр CABAC формата : Да
Параметр RefFrames формата : 4 кадра
Идентификатор кодека : V_MPEG4/ISO/AVC
Продолжительность : 1 ч. 32 м.
Вид битрейта : Переменный
Битрейт : 5282 Кбит/сек
Номинальный битрейт : 6000 Кбит/сек
Максимальный битрейт : 6000 Кбит/сек
Ширина : 1280 пикселей
Высота : 536 пикселей
Соотношение сторон : 2, 40: 1
Режим частоты кадров : Постоянный
Частота кадров : 23, 976 (24000/1001) кадра/сек
Стандарт вещания : Component
Цветовое пространство : YUV
Субдискретизация насыщенности : 4: 2: 0
Битовая глубина : 8 бит
Тип развёртки : Прогрессивная
Бит/(Пиксели*Кадры) : 0.321
Размер потока : 3, 40 Гбайт (91%)
Default : Нет
Forced : Нет
Цветовой диапазон : Limited
Основные цвета : BT.709
Характеристики трансфера : BT.709
Коэффициенты матрицы : BT.709
Аудио
Идентификатор : 2
Формат : AC-3
Формат/Информация : Audio Coding 3
Коммерческое название : Dolby Digital
Идентификатор кодека : A_AC3
Продолжительность : 1 ч. 32 м.
Вид битрейта : Постоянный
Битрейт : 384 Кбит/сек
Каналы : 2 канала
ChannelLayout : L R
Частота : 48, 0 КГц
Частота кадров : 31, 250 кадров/сек (1536 SPF)
Метод сжатия : С потерями
Размер потока : 253 Мбайт (7%)
Язык : Russian
ServiceKind/String : Complete Main
Default : Нет
Forced : Нет

Скриншоты для ознакомления



Все одноименные релизы в Клубе Время раздачи: 24/7 (до появления первых 3-5 скачавших)
Рейтинг →
 (голосов: 1, оценка 5/5, голосовать можно 1 раз )

Другие торренты по теме:

  • Арн: Объединенное королевство / Arn - Riket vid vagens slut (2008) BDRip [720p] скачать через торрент бесплатно
  • Арн: Объединенное королевство / Arn: Riket vid vägens slut t (2008) BDRip [1080p] ATV
  • Арн: Объединенное королевство / Arn: Riket vid vägens slut (2008) BDRip [576p] iPad
  • Арн: Объединенное королевство / Arn: Riket vid vägens slut (2008) BDRip [720p] ATV
  • Рози Бэнкс | Тайное королевство [6 книг] (2013-2014) [FB2]
  • Королевство / Kingdom (2014) HDTVRip (Сезон 1, серия 1 из 10) (NewStudio) (обновляемая) скачать через торрент бесплатно
  • Королевство океанов / Kingdom of the Oceans / Le Peuple des Oceans (2011) BDRip [H.264 / 720p] (1-4 серия из 4)
  • Королевство / Kingdom (2014) HDTV [H.264 / 720p-LQ] (Сезон 1, серии 1-4 из 10) (NewStudio) (обновляемая) скачать через торрент бесплатно


    • Комментарии (0):

      Информация

      Информация

        Посетители, находящиеся в группе Гости, не могут оставлять комментарии в данной новости.