Подписывайся на наш канал в Telegram https://t.me/torrentok и получи доступ к торрентам без ограничений!
.
Авторизация | Регистрация
torrent123.club


Бладшот / Bloodshot (2020) BDRip [H.264 / 1080p-LQ] [hand made 16:9] торрент скачать бесплатно

Дата: 27-04-2020, 05:00 | .torrent скачали: 0

Бладшот / Bloodshot (2020) BDRip [H.264 / 1080p-LQ] [hand made 16:9]Производство: Китай, США/Sony Pictures Entertainment (SPE), Bona Film Group
Жанр: Фантастика, Боевик
Режиссер: Дэйв Уилсон

Актеры
Вин Дизель, Сэм Хьюэн, Эйса Гонсалес, Талула Райли, Тоби Кеббелл, Гай Пирс, Ламорн Моррис, Йоуханнес Хёйкьюр Йоуханнессон, Сиддхартх Дхананджай, Алекс Эрнандез

Описание

Военный Рэй Гаррисон возвращается из очередной горячей точки к любимой красавице-жене. Супруги проводят отпуск в Европе, но счастье длится недолго — террористы, не сумев вытянуть из Рэя нужную им информацию, убивают жену, а затем и его самого. Но вскоре корпорация RST возвращает его к жизни. Армия нанороботов в крови превратила Рэя в бессмертного Бладшота, и теперь солдат наделен сверхсилой и способностью мгновенно самоисцеляться, вот только память оставляет желать лучшего. Но вскоре воспоминания о последних мгновениях жизни возвращаются, и Бладшот отправляется мстить за смерть жены.

Возраст: 16+ (зрителям, достигшим 16 лет)
Рейтинг MPAA: PG-13 (детям до 13 лет просмотр нежелателен)
Дата мировой премьеры: 20 февраля 2020
Дата российской премьеры: 12 марта 2020, СППР
Релиз от: SergeyAms
Продолжительность: 01: 49: 20
Качество видео: BDRip
Перевод: Дублированный (iTunes)
Субтитры: Русские (форс., полные), английские (полные)
Видео: AVC/H.264, 1920x1080, ~6 Mbps
Аудио #1: AC3, 6 ch, 384 Kbps - Русский
Аудио #2: DTS, 6 ch, 768 Kbps - Английский
x264 info: frame I: 1151 Avg QP: 18.57 size: 113424
x264 info: frame P: 47769 Avg QP: 19.96 size: 55874
x264 info: frame B: 108352 Avg QP: 21.88 size: 18585
Unique ID : 184755603436948129558095660702852149431 (0x8AFEA289269B04DDBAB227A9230F70B7)
Complete name : D: TempNNMБладшот.2020.1080p.FS.mkv
Format : Matroska
Format version : Version 4/Version 2
File size : 5.46 GiB
Duration : 1h 49mn
Overall bit rate : 7 155 Kbps
Movie name : Bloodshot 2020
Encoded date : UTC 2020-04-26 05: 01: 46
Writing application : mkvmerge v9.8.0 (\'Kuglblids\') 64bit
Writing library : libebml v1.3.4 + libmatroska v1.4.5
Video
ID : 1
Format : AVC
Format/Info : Advanced Video Codec
Format profile : High@L4.1
Format settings, CABAC : Yes
Format settings, ReFrames : 4 frames
Codec ID : V_MPEG4/ISO/AVC
Duration : 1h 49mn
Bit rate : 6 000 Kbps
Width : 1 920 pixels
Height : 1 080 pixels
Display aspect ratio : 16: 9
Frame rate mode : Constant
Frame rate : 23.976 fps
Color space : YUV
Chroma subsampling : 4: 2: 0
Bit depth : 8 bits
Scan type : Progressive
Bits/(Pixel*Frame) : 0.121
Stream size : 4.48 GiB (82%)
Writing library : x264 core 157 r2935 545de2f
Encoding settings : cabac=1/ref=4/deblock=1: -3: -3/analyse=0x3: 0x113/me=umh/subme=10/psy=1/psy_rd=1.05: 0.10/mixed_ref=1/me_range=24/chroma_me=1/trellis=2/8x8dct=1/cqm=0/deadzone=21, 11/fast_pskip=0/chroma_qp_offset=-3/threads=5/lookahead_threads=1/sliced_threads=0/nr=0/decimate=0/interlaced=0/bluray_compat=0/constrained_intra=0/bframes=8/b_pyramid=2/b_adapt=2/b_bias=0/direct=1/weightb=1/open_gop=0/weightp=2/keyint=240/keyint_min=24/scenecut=40/intra_refresh=0/rc=2pass/mbtree=0/bitrate=6000/ratetol=1.0/qcomp=0.70/qpmin=3/qpmax=69/qpstep=4/cplxblur=20.0/qblur=0.5/ip_ratio=1.40/pb_ratio=1.30/aq=2: 1.00
Default : Yes
Forced : No
Audio #1
ID : 2
Format : AC-3
Format/Info : Audio Coding 3
Mode extension : CM (complete main)
Format settings, Endianness : Big
Codec ID : A_AC3
Duration : 1h 49mn
Bit rate mode : Constant
Bit rate : 384 Kbps
Channel(s) : 6 channels
Channel positions : Front: L C R, Side: L R, LFE
Sampling rate : 48.0 KHz
Bit depth : 16 bits
Compression mode : Lossy
Stream size : 300 MiB (5%)
Language : Russian
Default : Yes
Forced : No
Audio #2
ID : 3
Format : DTS
Format/Info : Digital Theater Systems
Mode : 16
Format settings, Endianness : Big
Codec ID : A_DTS
Duration : 1h 49mn
Bit rate mode : Constant
Bit rate : 768 Kbps
Channel(s) : 6 channels
Channel positions : Front: L C R, Side: L R, LFE
Sampling rate : 48.0 KHz
Bit depth : 16 bits
Compression mode : Lossy
Stream size : 601 MiB (11%)
Language : English
Default : No
Forced : No
Text #1
ID : 4
Format : UTF-8
Codec ID : S_TEXT/UTF8
Codec ID/Info : UTF-8 Plain Text
Title : Forced
Language : Russian
Default : Yes
Forced : Yes
Text #2
ID : 5
Format : UTF-8
Codec ID : S_TEXT/UTF8
Codec ID/Info : UTF-8 Plain Text
Title : Full
Language : Russian
Default : No
Forced : No
Text #3
ID : 6
Format : UTF-8
Codec ID : S_TEXT/UTF8
Codec ID/Info : UTF-8 Plain Text
Title : SDH
Language : English
Default : No
Forced : No
Menu
00: 00: 00.000 : en: Studio Logo
00: 01: 02.000 : en: Scene 2
00: 04: 10.000 : en: Scene 3
00: 05: 09.000 : en: Scene 4
00: 07: 01.000 : en: Scene 5
00: 08: 51.000 : en: Scene 6
00: 13: 04.000 : en: Scene 7
00: 17: 31.000 : en: Scene 8
00: 20: 39.000 : en: Scene 9
00: 22: 46.000 : en: Scene 10
00: 25: 07.000 : en: Scene 11
00: 27: 57.000 : en: Scene 12
00: 29: 27.000 : en: Scene 13
00: 32: 12.000 : en: Scene 14
00: 32: 43.000 : en: Scene 15
00: 38: 27.000 : en: Scene 16
00: 41: 42.000 : en: Scene 17
00: 43: 21.000 : en: Scene 18
00: 50: 55.000 : en: Scene 19
00: 52: 44.000 : en: Scene 20
00: 54: 16.000 : en: Scene 21
00: 56: 21.000 : en: Scene 22
01: 02: 31.000 : en: Scene 23
01: 08: 10.000 : en: Scene 24
01: 09: 01.000 : en: Scene 25
01: 09: 51.000 : en: Scene 26
01: 12: 44.000 : en: Scene 27
01: 17: 38.000 : en: Scene 28
01: 19: 16.000 : en: Scene 29
01: 22: 21.000 : en: Scene 30
01: 27: 32.000 : en: Scene 31
01: 28: 15.000 : en: Scene 32
01: 31: 09.000 : en: Scene 33
01: 35: 20.000 : en: Scene 34
01: 38: 33.000 : en: Scene 35
01: 42: 38.000 : en: End Credits

Скриншоты для ознакомления



Все одноименные релизы в Клубе
Время раздачи: 24/7 (до появления первых 3-5 скачавших)
Рейтинг →
 (голосов: 1, оценка 4/5, голосовать можно 1 раз )

Другие торренты по теме:

  • Бладшот / Bloodshot (2020) CamRip [DVO, AD]
  • Бладшот / Bloodshot (2020) WEB-DLRip [H.264 / 1080p-LQ] [Line, AD]
  • Бладшот / Bloodshot (2020) WEB-DLRip [H.264 / 720p-LQ] [Line, AD]
  • Бладшот / Bloodshot (2020) WEB-DLRip [Line, AD]
  • Бладшот / Bloodshot (2020) WEB-DL [H.265 / 2160p] [4K, SDR, 10-bit] [EN / EN Sub]
  • Бладшот / Bloodshot (2020) WEB-DL [H.264 / 1080p] [MVO]
  • Бладшот / Bloodshot (2020) WEB-DL [H.264 / 720p] [MVO]
  • Бладшот / Bloodshot (2020) WEB-DLRip [MVO]


    • Комментарии (0):

      Информация

      Информация

        Посетители, находящиеся в группе Гости, не могут оставлять комментарии в данной новости.