Подписывайся на наш канал в Telegram https://t.me/torrentok и получи доступ к торрентам без ограничений!
.
Авторизация | Регистрация
torrent123.club


Пассажиры / Passengers (2016) Hybrid [H.264 / 1080p] торрент скачать бесплатно

Дата: 28-04-2020, 05:00 | .torrent скачали: 0

Пассажиры / Passengers (2016) Hybrid [H.264 / 1080p]Производство: США, Австралия/Columbia Pictures, LStar Capital, Village Roadshow Pictures
Жанр: фантастика, триллер, драма, мелодрама
Режиссер: Мортен Тильдум

Актеры
Дженнифер Лоуренс, Крис Прэтт, Майкл Шин, Лоуренс Фишборн, Энди Гарсиа, Винс Фостер, Кара Мишель Уайлдер, Конор Брофи, Джули Серда, Аврора Перрино

Описание

Космический корабль с 5 000 пассажирами на борту, погруженными на время полета в искусственный сон, держит курс на планету, которая станет для них новым домом. Всё идет по плану, но из-за сбоя системы двое пассажиров неожиданно просыпаются и понимают, что до конечного пункта путешествия 90 лет пути, и им суждено остаток жизни провести вдвоем в роскошных интерьерах корабля, оснащенного по последнему слову техники. Постепенно Джима и Аврору начинает непреодолимо тянуть друг к другу, но корабль попадает в беду, и теперь в их руках — жизнь и судьба всех обитателей корабля.

Возраст: 16+ (зрителям, достигшим 16 лет)
Рейтинг MPAA: PG-13 (детям до 13 лет просмотр нежелателен)
Продолжительность: 01: 56: 17
Качество видео: Hybrid BDRemux
Перевод: Дублированный
Субтитры: русские, английские
Видео: AVC/H.264, 1920x1080, ~26.9 mbps
Аудио 1: AC3, 6 ch, 640 kbps, Русский (DUB Blu-ray EUR)
Аудио 2: AC3, 6 ch, 640 kbps, Английский
Общее
Уникальный идентификатор : 218533436880486529066304772837423857312 (0xA468024D6AE741A6BD59045E3E3E3EA0)
Полное имя : E: FILMSZALIVPassengers.2016.BDREMUX.1080p.mkv
Формат : Matroska
Версия формата : Version 4
Размер файла : 22, 9 Гбайт
Продолжительность : 1 ч. 56 м.
Режим общего битрейта : Переменный
Общий поток : 28, 2 Мбит/сек
Название фильма : Passengers (2016)
Дата кодирования : UTC 2020-04-26 07: 05: 21
Программа кодирования : mkvmerge v8.2.0 (\'World of Adventure\') 64bit
Библиотека кодирования : libebml v1.3.1 + libmatroska v1.4.2
Видео
Идентификатор : 1
Формат : AVC
Формат/Информация : Advanced Video Codec
Профиль формата : High@L4.1
Настройки формата : CABAC/2 Ref Frames
Параметр CABAC формата : Да
Параметр RefFrames формата : 2 кадра
Параметр GOP формата : M=1, N=10
Идентификатор кодека : V_MPEG4/ISO/AVC
Продолжительность : 1 ч. 56 м.
Вид битрейта : Переменный
Битрейт : 26, 9 Мбит/сек
Максимальный битрейт : 30, 0 Мбит/сек
Ширина : 1 920 пикселей
Высота : 1 080 пикселей
Соотношение сторон : 16: 9
Режим частоты кадров : Постоянный
Частота кадров : 23, 976 (24000/1001) кадра/сек
Стандарт вещания : Component
Цветовое пространство : YUV
Субдискретизация насыщенности : 4: 2: 0
Битовая глубина : 8 бит
Тип развёртки : Прогрессивная
Бит/(Пиксели*Кадры) : 0.540
Размер потока : 21, 8 Гбайт (95%)
Язык : Russian
Default : Да
Forced : Нет
Цветовой диапазон : Limited
Основные цвета : BT.709
Характеристики трансфера : BT.709
Коэффициенты матрицы : BT.709
Аудио #1
Идентификатор : 2
Формат : AC-3
Формат/Информация : Audio Coding 3
Коммерческое название : Dolby Digital
Идентификатор кодека : A_AC3
Продолжительность : 1 ч. 56 м.
Вид битрейта : Постоянный
Битрейт : 640 Кбит/сек
Каналы : 6 каналов
Channel layout : L R C LFE Ls Rs
Частота : 48, 0 КГц
Частота кадров : 31, 250 кадров/сек (1536 SPF)
Метод сжатия : С потерями
Задержка видео : 2 с. 500 мс.
Размер потока : 532 Мбайт (2%)
Заголовок : Дубляж
Язык : Russian
Service kind : Complete Main
Default : Да
Forced : Да
Аудио #2
Идентификатор : 3
Формат : AC-3
Формат/Информация : Audio Coding 3
Коммерческое название : Dolby Digital
Идентификатор кодека : A_AC3
Продолжительность : 1 ч. 56 м.
Вид битрейта : Постоянный
Битрейт : 640 Кбит/сек
Каналы : 6 каналов
Channel layout : L R C LFE Ls Rs
Частота : 48, 0 КГц
Частота кадров : 31, 250 кадров/сек (1536 SPF)
Метод сжатия : С потерями
Задержка видео : 2 с. 500 мс.
Размер потока : 532 Мбайт (2%)
Заголовок : Оригинал
Язык : English
Service kind : Complete Main
Default : Нет
Forced : Нет
Текст #1
Идентификатор : 4
Формат : PGS
Режим смешивания : zlib
Идентификатор кодека : S_HDMV/PGS
Идентификатор кодека/Информация : Picture based subtitle format used on BDs/HD-DVDs
Продолжительность : 1 ч. 48 м.
Битрейт : 24, 4 Кбит/сек
Count of elements : 3240
Размер потока : 18, 9 Мбайт (0%)
Язык : English
Default : Нет
Forced : Нет
Текст #2
Идентификатор : 5
Формат : PGS
Режим смешивания : zlib
Идентификатор кодека : S_HDMV/PGS
Идентификатор кодека/Информация : Picture based subtitle format used on BDs/HD-DVDs
Продолжительность : 1 ч. 43 м.
Битрейт : 19, 5 Кбит/сек
Count of elements : 2474
Размер потока : 14, 4 Мбайт (0%)
Язык : English
Default : Нет
Forced : Нет
Текст #3
Идентификатор : 6
Формат : PGS
Режим смешивания : zlib
Идентификатор кодека : S_HDMV/PGS
Идентификатор кодека/Информация : Picture based subtitle format used on BDs/HD-DVDs
Продолжительность : 1 ч. 54 м.
Битрейт : 16, 6 Кбит/сек
Count of elements : 2230
Размер потока : 13, 6 Мбайт (0%)
Язык : Russian
Default : Нет
Forced : Нет
Текст #4
Идентификатор : 7
Формат : PGS
Режим смешивания : zlib
Идентификатор кодека : S_HDMV/PGS
Идентификатор кодека/Информация : Picture based subtitle format used on BDs/HD-DVDs
Продолжительность : 1 ч. 54 м.
Битрейт : 220 бит/сек
Count of elements : 28
Размер потока : 185 Кбайт (0%)
Язык : Russian
Default : Нет
Forced : Нет
Меню
00: 00: 00.000 : en: Chapter 01
00: 07: 04.674 : en: Chapter 02
00: 14: 38.210 : en: Chapter 03
00: 20: 33.649 : en: Chapter 04
00: 25: 06.046 : en: Chapter 05
00: 30: 30.662 : en: Chapter 06
00: 40: 47.987 : en: Chapter 07
00: 50: 23.020 : en: Chapter 08
00: 57: 28.945 : en: Chapter 09
01: 02: 54.812 : en: Chapter 10
01: 10: 46.909 : en: Chapter 11
01: 17: 48.664 : en: Chapter 12
01: 25: 16.903 : en: Chapter 13
01: 31: 45.041 : en: Chapter 14
01: 37: 53.242 : en: Chapter 15
01: 42: 18.340 : en: Chapter 16

Локализованная версия
Гибрид получен путем замены кадров с оригинальными титрами на локализованые кадры с записи телеканала Кинопремиум HD

Скриншоты для ознакомления



Все одноименные релизы в Клубе
Время раздачи: c 5 до 19 мск (до появления первых 3-5 скачавших)
Рейтинг →
 (голосов: 1, оценка 3/5, голосовать можно 1 раз )

Другие торренты по теме:

  • Пассажиры / Passengers (2016) WEBRip [H.264 / 1080p] [Трейлер]
  • Пассажиры / Passengers (2016) TS
  • Пассажиры / Passengers (2016) WEBRip [H.264 / 1080p-LQ] [Звук с TS]
  • Пассажиры / Passengers (2016) HDTVRip [H.264] [MP4|1024x576]
  • Пассажиры / Passengers (2016) WEBRip [Звук с TS]
  • Пассажиры / Passengers (2016) WEBRip [H.264 / 1080p-LQ] [Line]
  • Пассажиры / Passengers (2016) WEBRip [Line]
  • Пассажиры / Passengers (2016) WEB-DL [H.264 / 720p-LQ] [Line]


    • Комментарии (0):

      Информация

      Информация

        Посетители, находящиеся в группе Гости, не могут оставлять комментарии в данной новости.