Подписывайся на наш канал в Telegram https://t.me/torrentok и получи доступ к торрентам без ограничений!
.
Авторизация | Регистрация
torrent123.club
Торрент трекер | Скачать торрент | Скачать Через Торрент | Скачать торрент бесплатно | Скачать торрент без регистрации Другое торрент скачать Тор: Рагнарёк / Thor: Ragnarok (2017) Hybrid [H.264 / 720p] [IMAX Edition] [Локализованная версия] [PR] торрент скачать бесплатно


    Тор: Рагнарёк / Thor: Ragnarok (2017) Hybrid [H.264 / 720p] [IMAX Edition] [Локализованная версия] [PR] торрент скачать бесплатно

    Дата: 29-04-2020, 14:43 | .torrent скачали: 0

    Тор: Рагнарёк / Thor: Ragnarok (2017) Hybrid [H.264 / 720p] [IMAX Edition] [Локализованная версия] [PR]Производство: США/Walt Disney Pictures, Marvel Studios
    Жанр: фантастика, фэнтези, боевик, комедия, приключения
    Режиссер: Тайка Вайтити

    Актеры
    Крис Хемсворт, Том Хиддлстон, Кейт Бланшетт, Идрис Эльба, Джефф Голдблюм, Тесса Томпсон, Карл Урбан, Марк Руффало, Энтони Хопкинс, Бенедикт Камбербэтч

    Описание

    Вернувшись в Асгард в поисках таинственного врага, ведущего охоту на Камни Бесконечности, Тор обнаруживает, что действия его брата Локи, захватившего трон Асгарда, привели к приближению наиболее страшного события — Рагнарёка. По легенде это ознаменует последнюю битву Асгарда, последствием которой станет его полное уничтожение. В попытке предотвратить это событие Тору предстоит прибегнуть к помощи своего товарища из Мстителей — Халка. Вместе им предстоит столкнуться лицом к лицу со злейшим врагом всех девяти миров — огненным демоном Суртуром, целью которого является исполнение пророчества о Рагнарёке и уничтожение девяти миров.

    Возраст: 16+ (зрителям, достигшим 16 лет)
    Рейтинг MPAA: PG-13 (детям до 13 лет просмотр нежелателен)
    Продолжительность: 02: 10: 30
    Качество видео: Hybrid
    Перевод: Дублированный
    Субтитры: русские, английские
    Видео: AVC/H.264, 1280x720, 23.976 fps, ~9511 Kbps
    Аудио 1: AC3, 6 ch, 448 Kbps - Русский (DUB)
    Аудио 2: AC3, 6 ch, 448 Kbps - Английский
    General
    Unique ID : 208592203378721091838222687796576710898 (0x9CED65A611F43DE3A5F6EADCD7FCF0F2)
    Complete name : D: Thor. Ragnarok (2017) IMAX 720p.mkv
    Format : Matroska
    Format version : Version 4
    File size : 9.49 GiB
    Duration : 2 h 10 min
    Overall bit rate : 10.4 Mb/s
    Encoded date : UTC 2020-04-28 14: 58: 34
    Writing application : mkvmerge v8.3.0 (\'Over the Horizon\') 32bit
    Writing library : libebml v1.3.1 + libmatroska v1.4.2
    Video
    ID : 1
    Format : AVC
    Format/Info : Advanced Video Codec
    Format profile : High@L4.1
    Format settings : CABAC/8 Ref Frames
    Format settings, CABAC : Yes
    Format settings, Reference : 8 frames
    Codec ID : V_MPEG4/ISO/AVC
    Duration : 2 h 10 min
    Bit rate : 9 511 kb/s
    Width : 1 280 pixels
    Height : 720 pixels
    Display aspect ratio : 16: 9
    Frame rate mode : Constant
    Frame rate : 23.976 (24000/1001) FPS
    Color space : YUV
    Chroma subsampling : 4: 2: 0
    Bit depth : 8 bits
    Scan type : Progressive
    Bits/(Pixel*Frame) : 0.430
    Stream size : 8.67 GiB (91%)
    Writing library : x264 core 155 r2901 7d0ff22
    Encoding settings : cabac=1/ref=8/deblock=1: -3: -3/analyse=0x3: 0x133/me=umh/subme=10/psy=1/psy_rd=1.00: 0.00/mixed_ref=1/me_range=48/chroma_me=1/trellis=2/8x8dct=1/cqm=0/deadzone=21, 11/fast_pskip=0/chroma_qp_offset=-2/threads=12/lookahead_threads=3/sliced_threads=0/nr=0/decimate=1/interlaced=0/bluray_compat=0/constrained_intra=0/bframes=12/b_pyramid=2/b_adapt=2/b_bias=0/direct=3/weightb=1/open_gop=0/weightp=2/keyint=240/keyint_min=23/scenecut=40/intra_refresh=0/rc_lookahead=40/rc=crf/mbtree=0/crf=14.5/qcomp=0.60/qpmin=0/qpmax=69/qpstep=4/vbv_maxrate=62500/vbv_bufsize=78125/crf_max=0.0/nal_hrd=none/filler=0/ip_ratio=1.40/pb_ratio=1.30/aq=1: 1.00
    Language : English
    Default : Yes
    Forced : No
    Audio #1
    ID : 2
    Format : AC-3
    Format/Info : Audio Coding 3
    Commercial name : Dolby Digital
    Codec ID : A_AC3
    Duration : 2 h 10 min
    Bit rate mode : Constant
    Bit rate : 448 kb/s
    Channel(s) : 6 channels
    Channel layout : L R C LFE Ls Rs
    Sampling rate : 48.0 kHz
    Frame rate : 31.250 FPS (1536 SPF)
    Bit depth : 16 bits
    Compression mode : Lossy
    Stream size : 418 MiB (4%)
    Language : Russian
    Service kind : Complete Main
    Default : Yes
    Forced : No
    Audio #2
    ID : 3
    Format : AC-3
    Format/Info : Audio Coding 3
    Commercial name : Dolby Digital
    Codec ID : A_AC3
    Duration : 2 h 10 min
    Bit rate mode : Constant
    Bit rate : 448 kb/s
    Channel(s) : 6 channels
    Channel layout : L R C LFE Ls Rs
    Sampling rate : 48.0 kHz
    Frame rate : 31.250 FPS (1536 SPF)
    Bit depth : 16 bits
    Compression mode : Lossy
    Stream size : 418 MiB (4%)
    Language : English
    Service kind : Complete Main
    Default : No
    Forced : No
    Text #1
    ID : 4
    Format : UTF-8
    Codec ID : S_TEXT/UTF8
    Codec ID/Info : UTF-8 Plain Text
    Duration : 1 h 56 min
    Bit rate : 0 b/s
    Count of elements : 4
    Stream size : 216 Bytes (0%)
    Title : Forced
    Language : Russian
    Default : Yes
    Forced : No
    Text #2
    ID : 5
    Format : UTF-8
    Codec ID : S_TEXT/UTF8
    Codec ID/Info : UTF-8 Plain Text
    Duration : 2 h 9 min
    Bit rate : 77 b/s
    Count of elements : 1576
    Stream size : 73.5 KiB (0%)
    Title : Full
    Language : Russian
    Default : No
    Forced : No
    Text #3
    ID : 6
    Format : UTF-8
    Codec ID : S_TEXT/UTF8
    Codec ID/Info : UTF-8 Plain Text
    Duration : 2 h 9 min
    Bit rate : 49 b/s
    Count of elements : 1564
    Stream size : 47.1 KiB (0%)
    Language : English
    Default : No
    Forced : No
    Menu
    00: 00: 00.000 : : The Great Prophecy
    00: 06: 20.671 : : The Tragedy Of Loki Of Asgard
    00: 14: 11.642 : : A Worthy Inclusion
    00: 22: 12.873 : : The Goddess Of Death
    00: 26: 43.059 : : Are You A Fighter, Or Are You Food?
    00: 31: 29.721 : : Heiress Apparent
    00: 35: 03.935 : : The Grandmaster
    00: 42: 49.733 : : The Eternal Flame
    00: 48: 31.533 : : The Contest Of Champions
    00: 59: 38.783 : : The Resistance
    01: 07: 57.907 : : Hotheaded Fools
    01: 17: 30.604 : : The Revengers
    01: 27: 25.323 : : The Revolution Has Begun
    01: 36: 08.721 : : Ready For War
    01: 42: 35.732 : : Asgard Is Not A Place
    01: 49: 19.886 : : What Were You The God Of Again?
    01: 54: 57.599 : : Ragnarok
    02: 00: 37.521 : : End Credits
    Рейтинг →
     (голосов: 1, оценка 4/5, голосовать можно 1 раз )

    Другие торренты по теме:

  • Тор: Рагнарёк / Thor: Ragnarok (2017) TS [H.264 / 720p-LQ] [MVO] [AD]
  • Тор: Рагнарёк / Thor: Ragnarok (2017) WEB-DLRip [H.264 / 1080p-LQ] [MVO, AD]
  • Тор 3: Рагнарёк / Thor: Ragnarok (2017) WEB-DLRip [Звук с TS, AD]
  • Тор: Рагнарёк / Thor: Ragnarok (2017) WEB-DL [H.264 / 1080p-LQ] [Звук с TS] [AD]
  • Тор: Рагнарёк / Thor: Ragnarok (2017) WEB-DL [H.264 / 720p-LQ] [EN / EN Sub]
  • Тор: Рагнарёк / Thor: Ragnarok (2017) WEB-DL [H.264 / 1080p-LQ] [EN / EN Sub]
  • Тор: Рагнарёк / Thor: Ragnarok (2017) WEB-DLRip [H.264] [AVO]
  • Тор: Рагнарёк / Thor: Ragnarok (2017) WEB-DLRip [AVO]


    • Комментарии (0):

      Информация

      Информация

        Посетители, находящиеся в группе Гости, не могут оставлять комментарии в данной новости.