Подписывайся на наш канал в Telegram https://t.me/torrentok и получи доступ к торрентам без ограничений!
.
Авторизация | Регистрация
torrent123.club
Торрент трекер | Скачать торрент | Скачать Через Торрент | Скачать торрент бесплатно | Скачать торрент без регистрации Другое торрент скачать Звёздные войны: Скайуокер. Восход / Star Wars: Episode IX - The Rise of Skywalker (2019) BDRip [H.264 / 720p-LQ] [hand made 60fps] торрент скачать бесплатно


    Звёздные войны: Скайуокер. Восход / Star Wars: Episode IX - The Rise of Skywalker (2019) BDRip [H.264 / 720p-LQ] [hand made 60fps] торрент скачать бесплатно

    Дата: 2-05-2020, 05:01 | .torrent скачали: 0

    Звёздные войны: Скайуокер. Восход / Star Wars: Episode IX - The Rise of Skywalker (2019) BDRip [H.264 / 720p-LQ] [hand made 60fps]Производство: США, Lucasfilm, Bad Robot, Digital Makeup Group, Walt Disney Pictures
    Жанр: Фантастика, Фэнтези, Боевик, Приключения
    Режиссер: Джей Джей Абрамс
    Продюсер: Джей Джей Абрамс, Нур Дардари, Томми Гормли

    Актеры
    Дэйзи Ридли, Адам Драйвер, Кэрри Фишер, Марк Хэмилл, Джон Бойега, Оскар Айзек, Энтони Дэниелс, Наоми Аки, Донал Глисон, Ричард Э. Грант

    Описание

    Фильм завершает невероятную историю семьи Скайуокеров, длящуюся уже более сорока лет, и обещает дать ответы на все загадки из предыдущих серий. Зрителя ожидают старые и новые герои, уникальные миры, увлекательные путешествия на край Галактики и грандиозный финал фантастической саги.

    Возраст: 16+ (зрителям, достигшим 16 лет)
    Рейтинг MPAA: PG-13 (детям до 13 лет просмотр нежелателен)
    Дата мировой премьеры: 16 декабря 2019
    Дата российской премьеры: 19 декабря 2019, WDSSPR

    Продолжительность: 02: 21: 53
    Качество видео: BDRip 720p
    Перевод: Дублированный Custom
    Субтитры: Русские (Forced, Full, SDH), Английские (Full, SDH)
    Видео: AVC/H.264, 1280x536, ~4131 kbps
    Аудио: АC3, 6 ch, 384 Kbps - Русский
    General
    Unique ID : 63117534401832199911698657863794305097 (0x2F7BFEB52D405B38F9B84A97023A2849)
    Complete name : D: Star.Wars.Episode.IX-The.Rise.of.Skywalker.(2020).BDRip.720p.DubCustom.(60 Fps).mkv
    Format : Matroska
    Format version : Version 4
    File size : 4.47 GiB
    Duration : 2 h 21 min
    Overall bit rate : 4 519 kb/s
    Movie name : Star Wars: Episode IX - The Rise of Skywalker (2019) BDRip H.264/720p-LQ hand made 60fps
    Encoded date : UTC 2020-05-01 14: 38: 13
    Writing application : mkvmerge v44.0.0 (\'Domino\') 64-bit
    Writing library : libebml v1.3.10 + libmatroska v1.5.2
    Attachments : poster.jpg
    Video
    ID : 1
    Format : AVC
    Format/Info : Advanced Video Codec
    Format profile : High@L4.1
    Format settings : CABAC/8 Ref Frames
    Format settings, CABAC : Yes
    Format settings, Reference : 8 frames
    Codec ID : V_MPEG4/ISO/AVC
    Duration : 2 h 21 min
    Bit rate : 4 131 kb/s
    Width : 1 280 pixels
    Height : 536 pixels
    Display aspect ratio : 2.40: 1
    Frame rate mode : Constant
    Frame rate : 60.000 FPS
    Color space : YUV
    Chroma subsampling : 4: 2: 0
    Bit depth : 8 bits
    Scan type : Progressive
    Bits/(Pixel*Frame) : 0.100
    Stream size : 4.09 GiB (91%)
    Title : Star Wars: Episode IX - The Rise of Skywalker (2019) BDRip H.264/720p-LQ hand made 60fps
    Writing library : x264 core 130 r2273 b3065e6
    Encoding settings : cabac=1/ref=8/deblock=1: -1: -1/analyse=0x3: 0x133/me=umh/subme=9/psy=1/psy_rd=1.00: 0.00/mixed_ref=1/me_range=26/chroma_me=1/trellis=2/8x8dct=1/cqm=0/deadzone=21, 11/fast_pskip=0/chroma_qp_offset=-2/threads=6/lookahead_threads=1/sliced_threads=0/nr=0/decimate=1/interlaced=0/bluray_compat=0/constrained_intra=0/bframes=5/b_pyramid=2/b_adapt=2/b_bias=0/direct=3/weightb=1/open_gop=0/weightp=2/keyint=250/keyint_min=25/scenecut=40/intra_refresh=0/rc=crf/mbtree=0/crf=17.2/qcomp=0.60/qpmin=0/qpmax=69/qpstep=4/ip_ratio=1.40/pb_ratio=1.30/aq=1: 1.00
    Language : English
    Default : Yes
    Forced : No
    Audio
    ID : 2
    Format : AC-3
    Format/Info : Audio Coding 3
    Commercial name : Dolby Digital
    Codec ID : A_AC3
    Duration : 2 h 21 min
    Bit rate mode : Constant
    Bit rate : 384 kb/s
    Channel(s) : 6 channels
    Channel layout : L R C LFE Ls Rs
    Sampling rate : 48.0 kHz
    Frame rate : 31.250 FPS (1536 SPF)
    Compression mode : Lossy
    Stream size : 389 MiB (8%)
    Title : Дубляж, Custom
    Language : Russian
    Service kind : Complete Main
    Default : Yes
    Forced : Yes
    Text #1
    ID : 3
    Format : UTF-8
    Codec ID : S_TEXT/UTF8
    Codec ID/Info : UTF-8 Plain Text
    Duration : 1 h 37 min
    Bit rate : 1 b/s
    Count of elements : 10
    Stream size : 938 Bytes (0%)
    Title : Forced
    Language : Russian
    Default : Yes
    Forced : No
    Text #2
    ID : 4
    Format : UTF-8
    Codec ID : S_TEXT/UTF8
    Codec ID/Info : UTF-8 Plain Text
    Duration : 2 h 17 min
    Bit rate : 57 b/s
    Count of elements : 1435
    Stream size : 58.1 KiB (0%)
    Title : Full
    Language : Russian
    Default : No
    Forced : No
    Text #3
    ID : 5
    Format : UTF-8
    Codec ID : S_TEXT/UTF8
    Codec ID/Info : UTF-8 Plain Text
    Duration : 2 h 11 min
    Bit rate : 73 b/s
    Count of elements : 1764
    Stream size : 71.1 KiB (0%)
    Title : SDH
    Language : Russian
    Default : No
    Forced : No
    Text #4
    ID : 6
    Format : UTF-8
    Codec ID : S_TEXT/UTF8
    Codec ID/Info : UTF-8 Plain Text
    Duration : 2 h 11 min
    Bit rate : 39 b/s
    Count of elements : 1460
    Stream size : 37.9 KiB (0%)
    Title : Full
    Language : English
    Default : No
    Forced : No
    Text #5
    ID : 7
    Format : UTF-8
    Codec ID : S_TEXT/UTF8
    Codec ID/Info : UTF-8 Plain Text
    Duration : 2 h 11 min
    Bit rate : 48 b/s
    Count of elements : 1895
    Stream size : 47.1 KiB (0%)
    Title : SDH
    Language : English
    Default : No
    Forced : No
    Menu
    00: 00: 00.000 : en: Глава 01
    00: 00: 09.176 : en: Глава 02
    00: 01: 40.934 : en: Глава 03
    00: 03: 47.811 : en: Глава 04
    00: 06: 42.902 : en: Глава 05
    00: 08: 26.673 : en: Глава 06
    00: 10: 04.896 : en: Глава 07
    00: 12: 48.142 : en: Глава 08
    00: 13: 54.000 : en: Глава 09
    00: 15: 17.416 : en: Глава 10
    00: 17: 13.199 : en: Глава 11
    00: 19: 25.039 : en: Глава 12
    00: 21: 28.579 : en: Глава 13
    00: 25: 27.693 : en: Глава 14
    00: 27: 14.883 : en: Глава 15
    00: 30: 41.548 : en: Глава 16
    00: 35: 49.064 : en: Глава 17
    00: 41: 37.745 : en: Глава 18
    00: 43: 15.259 : en: Глава 19
    00: 45: 28.351 : en: Глава 20
    00: 48: 24.568 : en: Глава 21
    00: 54: 37.566 : en: Глава 22
    00: 58: 49.192 : en: Глава 23
    01: 02: 54.771 : en: Глава 24
    01: 06: 23.104 : en: Глава 25
    01: 09: 54.607 : en: Глава 26
    01: 13: 07.383 : en: Глава 27
    01: 18: 23.616 : en: Глава 28
    01: 23: 41.225 : en: Глава 29
    01: 27: 02.884 : en: Глава 30
    01: 30: 23.126 : en: Глава 31
    01: 35: 00.820 : en: Глава 32
    01: 38: 47.880 : en: Глава 33
    01: 40: 35.863 : en: Глава 34
    01: 43: 03.135 : en: Глава 35
    01: 45: 27.863 : en: Глава 36
    01: 48: 48.188 : en: Глава 37
    01: 53: 27.634 : en: Глава 38
    01: 55: 30.757 : en: Глава 39
    01: 59: 02.969 : en: Глава 40
    02: 01: 37.749 : en: Глава 41
    02: 05: 20.430 : en: Глава 42
    02: 09: 42.692 : en: Глава 43
    02: 12: 25.896 : en: Глава 44
    Дорожка сделана из оригинальной DTS-HD MA, 7.1 и дублированной Dolby Digital дорожек путём замены всех участков с английской речью, отголосками и эхом на аналогичные с дублированной дорожки во всех каналах. За нее спасибо - krat11.
    Скриншоты для ознакомления



    Все одноименные релизы в Клубе
    Время раздачи: 24/7 (до появления первых 3-5 скачавших)
    Рейтинг →
     (голосов: 1, оценка 3/5, голосовать можно 1 раз )

    Другие торренты по теме:

  • Daniel Wallace | Артбук Звёздные Войны: Руководство контрабандистов / Star Wars: Smugglers Guide (2019) [CBZ] [EN]
  • Lucasfilm | Артбук по мультфильму Звёздные войны: Войны клонов / The Art of Star Wars: The Clone Wars (2009) [CBR] [EN]
  • Звёздные Войны: Войны Клонов / Star Wars: The Clone Wars (2020) WEB-DLRip [H.264 / 720p-LQ] (Сезон 7, Серия 1 из 12) LostFilm (Обновляемая)
  • Звёздные войны. Эпизод 5: Империя наносит ответный удар / Star Wars: Episode V - The Empire Strikes Back / Despecialized Edition Theatrical reconstruction HD (1980) BDRip скачать через торрент бесплатно
  • Звёздные войны: Повстанцы / Star Wars: Rebels (2014) WEB-DLRip (Сезон 1, Серий 3 из 16) (LostFilm)
  • Финес и Ферб. Звёздные войны / Phineas and Ferb: Star Wars (2014) WEB-DLRip (ЛанселаП) скачать через торрент бесплатно
  • Звёздные войны: Повстанцы / Star Wars: Rebels (2014) WEB-DLRip [1080p] (Сезон 1, серий 8 из 16) (LostFilm) скачать через торрент бесплатно
  • Звёздные войны: Повстанцы / Star Wars: Rebels (2014) WEB-DLRip (Сезон 1, серий 7 из 16) (Невафильм) (обновляемая)


    • Комментарии (0):

      Информация

      Информация

        Посетители, находящиеся в группе Гости, не могут оставлять комментарии в данной новости.