Подписывайся на наш канал в Telegram https://t.me/torrentok и получи доступ к торрентам без ограничений!
.
Авторизация | Регистрация
torrent123.club
Торрент трекер | Скачать торрент | Скачать Через Торрент | Скачать торрент бесплатно | Скачать торрент без регистрации Другое торрент скачать Харлей Дэвидсон и ковбой Мальборо / Harley Davidson and the Marlboro Man (1991) BDRip [H.264 / 720p-LQ] [AVO] [hand made 60fps] торрент скачать бесплатно


    Харлей Дэвидсон и ковбой Мальборо / Harley Davidson and the Marlboro Man (1991) BDRip [H.264 / 720p-LQ] [AVO] [hand made 60fps] торрент скачать бесплатно

    Дата: 2-05-2020, 05:01 | .torrent скачали: 0

    Харлей Дэвидсон и ковбой Мальборо / Harley Davidson and the Marlboro Man (1991) BDRip [H.264 / 720p-LQ] [AVO] [hand made 60fps]Производство: США/Krisjair, Laredo, Metro-Goldwyn-Mayer (MGM)
    Жанр: боевик, триллер, драма, криминал, вестерн
    Режиссер: Саймон Уинсер

    Актеры
    Микки Рурк, Дон Джонсон, Челси Филд, Тиа Каррере, Дэниэл Болдуин, Джанкарло Эспозито, Ванесса Уильямс, Роберт Гинти, Джулиус Харрис, Элой Касадос

    Описание

    Харли Дэвидсон и ковбой Мальборо - немного грубоватые и одновременно чувствительные Робин Гуды нашего времени, настоящие искатели приключений. Однажды их старый друг попадает в беду, так как один из банков пытается отнять принадлежащий ему бар. Харли Дэвидсон и ковбой Мальборо не допустят такого беззакония, поэтому собираются в отместку ограбить инкассаторов банка. Но их ждала неожиданность во время нападения на машину, так как в ней оказались не деньги, а наркотики. Теперь ковбоя Мальборо и Харли Дэвидсона преследует целая преступная группировка коррумпированного банкира. Впереди главных героев ждет не одна погоня, настоящие схватки с бандитами и все же им удастся с достоинством выйти из любой трудной ситуации...

    Возраст: 18+ (зрителям, достигшим 18 лет)
    Рейтинг MPAA: R (лицам до 17 лет обязательно присутствие взрослого)
    Дата мировой премьеры: 23 августа 1991
    Продолжительность: 01: 38: 27
    Качество видео: BDRip 720p
    Перевод: Авторский, одноголосый Д. Пучков Гоблинненормативная лексика
    Субтитры: Русские (Full), английские (Full)
    Видео: AVC/H.264, 1280х696, ~5260 kbps
    Аудио: AC3, 2 ch, 192 Kbps - Русский AVO
    General
    Unique ID : 44915720259227451111218778962378460645 (0x21CA73FBE0A832AFF70BF071E4218DE5)
    Complete name : D: HD.and.the.CM.1991.BDRip.720p.60fps.mkv
    Format : Matroska
    Format version : Version 4
    File size : 3.75 GiB
    Duration : 1 h 38 min
    Overall bit rate : 5 456 kb/s
    Movie name : HD.and.the.CM.1991.BDRip.720p.60fps
    Encoded date : UTC 2020-05-01 14: 06: 08
    Writing application : mkvmerge v44.0.0 (\'Domino\') 64-bit
    Writing library : libebml v1.3.10 + libmatroska v1.5.2
    Attachments : poster.jpg
    Video
    ID : 1
    Format : AVC
    Format/Info : Advanced Video Codec
    Format profile : High@L4.1
    Format settings : CABAC/8 Ref Frames
    Format settings, CABAC : Yes
    Format settings, Reference : 8 frames
    Codec ID : V_MPEG4/ISO/AVC
    Duration : 1 h 38 min
    Bit rate : 5 260 kb/s
    Width : 1 280 pixels
    Height : 696 pixels
    Display aspect ratio : 1.85: 1
    Frame rate mode : Constant
    Frame rate : 60.000 FPS
    Color space : YUV
    Chroma subsampling : 4: 2: 0
    Bit depth : 8 bits
    Scan type : Progressive
    Bits/(Pixel*Frame) : 0.098
    Stream size : 3.61 GiB (96%)
    Title : HD.and.the.CM.1991.BDRip.720p.60fps
    Writing library : x264 core 130 r2273 b3065e6
    Encoding settings : cabac=1/ref=8/deblock=1: -1: -1/analyse=0x3: 0x133/me=umh/subme=9/psy=1/psy_rd=1.00: 0.00/mixed_ref=1/me_range=26/chroma_me=1/trellis=2/8x8dct=1/cqm=0/deadzone=21, 11/fast_pskip=0/chroma_qp_offset=-2/threads=4/lookahead_threads=1/sliced_threads=0/nr=0/decimate=1/interlaced=0/bluray_compat=0/constrained_intra=0/bframes=5/b_pyramid=2/b_adapt=2/b_bias=0/direct=3/weightb=1/open_gop=0/weightp=2/keyint=250/keyint_min=25/scenecut=40/intra_refresh=0/rc=crf/mbtree=0/crf=18.2/qcomp=0.60/qpmin=0/qpmax=69/qpstep=4/ip_ratio=1.40/pb_ratio=1.30/aq=1: 1.00
    Language : English
    Default : Yes
    Forced : No
    Audio
    ID : 2
    Format : AC-3
    Format/Info : Audio Coding 3
    Commercial name : Dolby Digital
    Codec ID : A_AC3
    Duration : 1 h 38 min
    Bit rate mode : Constant
    Bit rate : 192 kb/s
    Channel(s) : 2 channels
    Channel layout : L R
    Sampling rate : 48.0 kHz
    Frame rate : 31.250 FPS (1536 SPF)
    Compression mode : Lossy
    Stream size : 135 MiB (4%)
    Title : AVO Гоблин
    Language : Russian
    Service kind : Complete Main
    Default : Yes
    Forced : Yes
    Text #1
    ID : 3
    Format : UTF-8
    Codec ID : S_TEXT/UTF8
    Codec ID/Info : UTF-8 Plain Text
    Duration : 1 h 34 min
    Bit rate : 77 b/s
    Count of elements : 842
    Stream size : 53.8 KiB (0%)
    Title : Full
    Language : Russian
    Default : No
    Forced : No
    Text #2
    ID : 4
    Format : UTF-8
    Codec ID : S_TEXT/UTF8
    Codec ID/Info : UTF-8 Plain Text
    Duration : 1 h 37 min
    Bit rate : 48 b/s
    Count of elements : 1162
    Stream size : 35.0 KiB (0%)
    Title : Full
    Language : English
    Default : No
    Forced : No

    Скриншоты для ознакомления



    Все одноименные релизы в Клубе
    Время раздачи: 24/7 (до появления первых 3-5 скачавших)
    Рейтинг →
     (голосов: 1, оценка 4/5, голосовать можно 1 раз )

    Другие торренты по теме:

  • Харлей Дэвидсон и ковбой Мальборо / Harley Davidson and the Marlboro Man (1991) BDRip [H.264 / 720р-LQ] скачать через торрент бесплатно
  • Харлей Дэвидсон и ковбой Мальборо / Harley Davidson and the Marlboro Man (1991) HDRip скачать через торрент бесплатно
  • Харлей Дэвидсон и ковбой Мальборо / Harley Davidson and the Marlboro Man (1991) BDRemux [H.264 / 1080p] скачать через торрент бесплатно
  • Харлей Дэвидсон и ковбой Мальборо / Harley Davidson and the Marlboro Man (1991) BDRip [H.264 / 720p] скачать через торрент бесплатно
  • Харлей Дэвидсон и ковбой Мальборо / Harley Davidson and the Marlboro Man (1991) BDRip [H.264 / 1080p] скачать через торрент бесплатно


    • Комментарии (0):

      Информация

      Информация

        Посетители, находящиеся в группе Гости, не могут оставлять комментарии в данной новости.