Подписывайся на наш канал в Telegram https://t.me/torrentok и получи доступ к торрентам без ограничений!
.
Авторизация | Регистрация
torrent123.club


Зов предков / The Call of the Wild (2020) BDRip [H.265 / 1080p-LQ] [10-bit] [hand made 60fps] [PR] торрент скачать бесплатно

Дата: 6-05-2020, 05:00 | .torrent скачали: 2

Зов предков / The Call of the Wild (2020) BDRip [H.265 / 1080p-LQ] [10-bit] [hand made 60fps] [PR]Производство: США, Канада/3 Arts Entertainment, TSG Entertainment
Жанр: Драма, Приключения, Семейный
Режиссер: Крис Сандерс

Актеры
Харрисон Форд, Омар Си, Кара Ги, Дэн Стивенс, Брэдли Уитфорд, Джин Луиса Келли

Описание

История Бака, дружелюбного пса, чья размеренная домашняя жизнь перевернулась с ног на голову во времена золотой лихорадки в 1880-х, когда его вырвали из дома в Калифорнии и перевезли в дикую и холодную Аляску. Будучи новичком в упряжке почтовой службы, а впоследствии лидером, Бак попадает в невероятное приключение, находит свое место в мире и становится хозяином своей жизни.

Возраст: 6+ (зрителям, достигшим 6 лет)
Рейтинг MPAA: PG (рекомендуется присутствие родителей)
Дата мировой премьеры: 19 февраля 2020
Дата российской премьеры: 20 февраля 2020, Двадцатый Век Фокс СНГ
Продолжительность: 01: 39: 42
Качество видео: BDRip
Перевод: Дублированный (iTunes)
Субтитры: Русские (Full)
Видео: HEVC/H.265, 1920x800, 3505 kbps, 59, 940 fps
Аудио: AC3, 6 ch, 384 Kbps | Русский
General
Unique ID : 291904027958539046089550069632233225618 (0xDB9AABBBBA8071D3C7BCB9E0A481BD92)
Complete name : D: The Call of the Wild (2020) BDRip 1080p-LQ hand made 60fps.mkv
Format : Matroska
Format version : Version 4
File size : 2.71 GiB
Duration : 1 h 39 min
Overall bit rate : 3 893 kb/s
Movie name : ®w@
Encoded date : UTC 2020-05-05 14: 14: 39
Writing application : mkvmerge v44.0.0 (\'Domino\') 64-bit
Writing library : libebml v1.3.10 + libmatroska v1.5.2
Attachments : poster.jpg
Video
ID : 1
Format : HEVC
Format/Info : High Efficiency Video Coding
Format profile : Main10@L4.1@Main
Codec ID : V_MPEGH/ISO/HEVC
Duration : 1 h 39 min
Bit rate : 3 505 kb/s
Width : 1 920 pixels
Height : 800 pixels
Display aspect ratio : 2.40: 1
Frame rate mode : Constant
Frame rate : 59.940 (60000/1001) FPS
Color space : YUV
Chroma subsampling : 4: 2: 0
Bit depth : 10 bits
Bits/(Pixel*Frame) : 0.038
Stream size : 2.44 GiB (90%)
Title : ®w@
Writing library : x265 2.3+33-0b7d54dbb71a87a0: WindowsMSVC 180064 bit 10bit: KG7x x265.ru
Encoding settings : cpuid=1173503/frame-threads=2/numa-pools=4/wpp/no-pmode/no-pme/no-psnr/no-ssim/log-level=2/input-csp=1/input-res=1920x800/interlace=0/total-frames=358558/level-idc=41/high-tier=1/uhd-bd=0/ref=3/no-allow-non-conformance/no-repeat-t_heads/annexb/no-aud/no-hrd/info/hash=0/no-temporal-layers/open-gop/min-keyint=25/keyint=250/bframes=4/b-adapt=2/b-pyramid/bframe-bias=0/rc-lookahead=20/lookahead-slices=5/scenecut=40/no-intra-refresh/ctu=64/min-cu-size=8/no-rect/no-amp/max-tu-size=32/tu-inter-depth=1/tu-intra-depth=1/limit-tu=0/rdoq-level=0/dynamic-rd=0.00/no-ssim-rd/signhide/no-tskip/nr-intra=0/nr-inter=0/no-constrained-intra/strong-intra-smoothing/max-merge=2/limit-refs=3/no-limit-modes/me=1/subme=2/merange=57/temporal-mvp/weightp/no-weightb/no-analyze-src-pics/deblock=0: 0/no-sao/no-sao-non-deblock/rd=3/no-early-skip/no-rskip/no-fast-intra/no-tskip-fast/no-cu-lossless/no-b-intra/rdpenalty=0/psy-rd=4.00/psy-rdoq=0.00/no-rd-refine/analysis-mode=0/no-lossless/cbqpoffs=0/crqpoffs=0/rc=abr/bitrate=3500/qcomp=0.60/qpstep=1/stats-write=0/stats-read=2/cplxblur=20.0/qblur=0.5/ipratio=1.10/pbratio=1.00/aq-mode=0/aq-strength=0.00/no-cutree/zone-count=0/no-strict-cbr/qg-size=64/rc-grain/qpmax=69/qpmin=0/sar=1/overscan=0/videoformat=5/range=0/colorprim=2/transfer=2/colormatrix=2/chromaloc=0/display-window=0/max-cll=0, 0/min-luma=0/max-luma=1023/log2-max-poc-lsb=8/vui-timing-info/vui-hrd-info/slices=1/opt-qp-pps/opt-ref-list-length-pps/no-multi-pass-opt-rps/scenecut-bias=0.05/no-opt-cu-delta-qp/no-aq-motion/no-hdr/no-hdr-opt/refine-level=5/no-limit-sao
Default : Yes
Forced : No
Audio
ID : 2
Format : AC-3
Format/Info : Audio Coding 3
Commercial name : Dolby Digital
Codec ID : A_AC3
Duration : 1 h 39 min
Bit rate mode : Constant
Bit rate : 384 kb/s
Channel(s) : 6 channels
Channel layout : L R C LFE Ls Rs
Sampling rate : 48.0 kHz
Frame rate : 31.250 FPS (1536 SPF)
Compression mode : Lossy
Stream size : 274 MiB (10%)
Title : iTunes
Language : Russian
Service kind : Complete Main
Default : Yes
Forced : Yes
Text
ID : 3
Format : UTF-8
Codec ID : S_TEXT/UTF8
Codec ID/Info : UTF-8 Plain Text
Duration : 1 h 38 min
Bit rate : 34 b/s
Count of elements : 765
Stream size : 24.7 KiB (0%)
Title : Full iTunes
Language : Russian
Default : No
Forced : No
Menu
00: 00: 00.000 : en: Chapter 01
00: 03: 35.882 : en: Chapter 02
00: 05: 58.608 : en: Chapter 03
00: 10: 31.339 : en: Chapter 04
00: 15: 49.699 : en: Chapter 05
00: 19: 03.851 : en: Chapter 06
00: 23: 29.533 : en: Chapter 07
00: 27: 28.355 : en: Chapter 08
00: 32: 27.821 : en: Chapter 09
00: 34: 32.529 : en: Chapter 10
00: 41: 43.793 : en: Chapter 11
00: 46: 14.522 : en: Chapter 12
00: 50: 07.338 : en: Chapter 13
00: 55: 15.562 : en: Chapter 14
01: 00: 30.919 : en: Chapter 15
01: 04: 04.632 : en: Chapter 16
01: 07: 46.980 : en: Chapter 17
01: 12: 38.563 : en: Chapter 18
01: 17: 02.952 : en: Chapter 19
01: 19: 25.219 : en: Chapter 20
01: 23: 07.107 : en: Chapter 21
01: 26: 21.218 : en: Chapter 22
01: 29: 26.194 : en: Chapter 23
01: 32: 22.620 : en: Chapter 24
Скриншоты для ознакомления


Все одноименные релизы в Клубе
Время раздачи: 24/7 (до появления первых 3-5 скачавших)
Рейтинг →
 (голосов: 1, оценка 4/5, голосовать можно 1 раз )

Другие торренты по теме:

  • Зов предков / Call of the Wild (2009) BDRip [H.264 / 720p]
  • Reflections of Life 4: Call Of The Ancestors / Отражения жизни 4: Зов предков (2016) [Ru] (1.0) Unofficial [Collectors Edition / Коллекционное издание]
  • John Powell - The Call of the Wild / Зов предков (Original Motion Picture Soundtrack) (2020) [FLAC|Lossless|WEB-DL|tracks]<Soundtrack>
  • John Powell - The Call of the Wild / Зов предков (Original Motion Picture Soundtrack) (2020) [MP3|320 кб / с]<Soundtrack>
  • John Powell - The Call of the Wild / Зов предков (Original Motion Picture Soundtrack) (2020) [FLAC2.0|44.1 / 24|tracks|WEB-DL] <Soundtrack>
  • Зов предков / The Call of the Wild (2020) WEB-DLRip [UKR] [Line]
  • Зов предков / The Call of the Wild (2020) WEB-DLRip [Line, AD]
  • Зов предков / The Call of the Wild (2020) WEB-DLRip [H.264 / 1080p-LQ] [Line, AD]


    • Комментарии (0):

      Информация

      Информация

        Посетители, находящиеся в группе Гости, не могут оставлять комментарии в данной новости.