Подписывайся на наш канал в Telegram https://t.me/torrentok и получи доступ к торрентам без ограничений!
.
Авторизация | Регистрация
torrent123.club
Торрент трекер | Скачать торрент | Скачать Через Торрент | Скачать торрент бесплатно | Скачать торрент без регистрации Другое торрент скачать Властелин колец: Братство кольца / The Lord of the Rings: The Fellowship of the Ring (2001) HybridRip [H.264 / 720p-LQ] [Extended Edition] [Open Matte] торрент скачать бесплатно


    Властелин колец: Братство кольца / The Lord of the Rings: The Fellowship of the Ring (2001) HybridRip [H.264 / 720p-LQ] [Extended Edition] [Open Matte] торрент скачать бесплатно

    Дата: 9-05-2020, 05:00 | .torrent скачали: 0

    Властелин колец: Братство кольца / The Lord of the Rings: The Fellowship of the Ring (2001) HybridRip [H.264 / 720p-LQ] [Extended Edition] [Open Matte]Производство: США, Новая Зеландия/New Line Cinema, WingNut Films, The Saul Zaentz Company
    Жанр: фэнтези, приключения, драма
    Режиссер: Питер Джексон

    Актеры
    Элайджа Вуд, Иэн МакКеллен, Вигго Мортенсен, Шон Бин, Орландо Блум, Джон Рис-Дэвис, Иэн Холм, Шон Эстин, Билли Бойд, Доминик Монахэн, Хьюго Уивинг, Кейт Бланшетт, Лив Тайлер, Кристофер Ли

    Описание

    Сказания о Средиземье — это хроника Великой войны за Кольцо, войны, длившейся не одну тысячу лет. Тот, кто владел Кольцом, получал власть над всеми живыми тварями, но был обязан служить злу.
    Тихая деревня, где живут хоббиты. Волшебник Гэндальф, придя на 111-й день рождения к своему старому другу Бильбо Бэггинсу, начинает вести разговор о кольце, которое Бильбо нашел много лет назад. Это кольцо принадлежало когда-то темному властителю Средиземья Саурону, и оно дает большую власть своему обладателю. Теперь Саурон хочет вернуть себе власть над Средиземьем. Бильбо отдает найденное кольцо своему племяннику Фродо, который пытается научиться справляться с тем страшным могуществом, которое дает ему кольцо…

    Возраст: 12+ (зрителям, достигшим 12 лет)
    Рейтинг MPAA: PG-13 (детям до 13 лет просмотр нежелателен)
    Продолжительность: 03: 28: 19
    Качество видео: HybridRip
    Перевод: Дублированный, многоголосый профессиональный
    Субтитры: русские (форс., полные), английские
    Видео: AVC/H.264, 1280x720, 23.976 fps, ~3837 Kbps
    Аудио #1: AC3, 6 ch, 448 Kbps - Русский (DUB+MVO)
    Аудио #2: AC3, 6 ch, 448 Kbps - Русский (MVO Позитив-мультимедия)
    Аудио #3: AC3, 6 ch, 448 Kbps - Русский (MVO Киномания/Супербит)
    Аудио #4: AC3, 2 ch, 192 Kbps - Русский (MVO R5)
    Аудио #5: AC3, 6 ch, 448 Kbps - Английский
    General
    Unique ID : 238753046504180077939421301910020121957 (0xB39E2A063BA52DFA94B225B547DD6565)
    Complete name : D: LOTR Fellowship of the Ring (2001) Open Matte Hybrid 720p.mkv
    Format : Matroska
    Format version : Version 4
    File size : 8.47 GiB
    Duration : 3 h 28 min
    Overall bit rate : 5 824 kb/s
    Movie name : Властелин колец: Братство кольца/The Lord of the Rings: The Fellowship of the Ring (2001) (Open Matte) - #LORDKILL#
    Encoded date : UTC 2020-05-07 16: 46: 41
    Writing application : mkvmerge v8.3.0 (\'Over the Horizon\') 32bit
    Writing library : libebml v1.3.1 + libmatroska v1.4.2
    Video
    ID : 1
    Format : AVC
    Format/Info : Advanced Video Codec
    Format profile : High@L4.1
    Format settings : CABAC/9 Ref Frames
    Format settings, CABAC : Yes
    Format settings, Reference : 9 frames
    Codec ID : V_MPEG4/ISO/AVC
    Duration : 3 h 28 min
    Bit rate : 3 837 kb/s
    Width : 1 280 pixels
    Height : 720 pixels
    Display aspect ratio : 16: 9
    Frame rate mode : Constant
    Frame rate : 23.976 (24000/1001) FPS
    Color space : YUV
    Chroma subsampling : 4: 2: 0
    Bit depth : 8 bits
    Scan type : Progressive
    Bits/(Pixel*Frame) : 0.174
    Stream size : 5.58 GiB (66%)
    Writing library : x264 core 159 r2991 1771b55
    Encoding settings : cabac=1/ref=9/deblock=1: 0: 0/analyse=0x3: 0x113/me=umh/subme=10/psy=1/psy_rd=1.00: 0.20/mixed_ref=1/me_range=32/chroma_me=1/trellis=2/8x8dct=1/cqm=0/deadzone=21, 11/fast_pskip=0/chroma_qp_offset=-3/threads=12/lookahead_threads=2/sliced_threads=0/nr=0/decimate=1/interlaced=0/bluray_compat=0/constrained_intra=0/bframes=8/b_pyramid=2/b_adapt=2/b_bias=0/direct=1/weightb=1/open_gop=0/weightp=2/keyint=240/keyint_min=23/scenecut=40/intra_refresh=0/rc=crf/mbtree=0/crf=19.0/qcomp=0.60/qpmin=0/qpmax=69/qpstep=4/ip_ratio=1.40/pb_ratio=1.30/aq=1: 1.00
    Default : Yes
    Forced : No
    Audio #1
    ID : 2
    Format : AC-3
    Format/Info : Audio Coding 3
    Commercial name : Dolby Digital
    Codec ID : A_AC3
    Duration : 3 h 28 min
    Bit rate mode : Constant
    Bit rate : 448 kb/s
    Channel(s) : 6 channels
    Channel layout : L R C LFE Ls Rs
    Sampling rate : 48.0 kHz
    Frame rate : 31.250 FPS (1536 SPF)
    Bit depth : 16 bits
    Compression mode : Lossy
    Stream size : 668 MiB (8%)
    Title : DUB+MVO
    Language : Russian
    Service kind : Complete Main
    Default : Yes
    Forced : No
    Audio #2
    ID : 3
    Format : AC-3
    Format/Info : Audio Coding 3
    Commercial name : Dolby Digital
    Codec ID : A_AC3
    Duration : 3 h 28 min
    Bit rate mode : Constant
    Bit rate : 448 kb/s
    Channel(s) : 6 channels
    Channel layout : L R C LFE Ls Rs
    Sampling rate : 48.0 kHz
    Frame rate : 31.250 FPS (1536 SPF)
    Bit depth : 16 bits
    Compression mode : Lossy
    Stream size : 668 MiB (8%)
    Title : MVO Позитив-мультимедия
    Language : Russian
    Service kind : Complete Main
    Default : No
    Forced : No
    Audio #3
    ID : 4
    Format : AC-3
    Format/Info : Audio Coding 3
    Commercial name : Dolby Digital
    Codec ID : A_AC3
    Duration : 3 h 28 min
    Bit rate mode : Constant
    Bit rate : 448 kb/s
    Channel(s) : 6 channels
    Channel layout : L R C LFE Ls Rs
    Sampling rate : 48.0 kHz
    Frame rate : 31.250 FPS (1536 SPF)
    Bit depth : 16 bits
    Compression mode : Lossy
    Stream size : 668 MiB (8%)
    Title : MVO Киномания
    Language : Russian
    Service kind : Complete Main
    Default : No
    Forced : No
    Audio #4
    ID : 5
    Format : AC-3
    Format/Info : Audio Coding 3
    Commercial name : Dolby Digital
    Codec ID : A_AC3
    Duration : 3 h 28 min
    Bit rate mode : Constant
    Bit rate : 192 kb/s
    Channel(s) : 2 channels
    Channel layout : L R
    Sampling rate : 48.0 kHz
    Frame rate : 31.250 FPS (1536 SPF)
    Bit depth : 16 bits
    Compression mode : Lossy
    Stream size : 286 MiB (3%)
    Title : MVO R5
    Language : Russian
    Service kind : Complete Main
    Default : No
    Forced : No
    Audio #5
    ID : 6
    Format : AC-3
    Format/Info : Audio Coding 3
    Commercial name : Dolby Digital
    Codec ID : A_AC3
    Duration : 3 h 28 min
    Bit rate mode : Constant
    Bit rate : 448 kb/s
    Channel(s) : 6 channels
    Channel layout : L R C LFE Ls Rs
    Sampling rate : 48.0 kHz
    Frame rate : 31.250 FPS (1536 SPF)
    Bit depth : 16 bits
    Compression mode : Lossy
    Stream size : 668 MiB (8%)
    Language : English
    Service kind : Complete Main
    Default : No
    Forced : No
    Text #1
    ID : 7
    Format : UTF-8
    Codec ID : S_TEXT/UTF8
    Codec ID/Info : UTF-8 Plain Text
    Duration : 2 h 49 min
    Bit rate : 2 b/s
    Count of elements : 56
    Stream size : 3.07 KiB (0%)
    Title : forced
    Language : Russian
    Default : Yes
    Forced : No
    Text #2
    ID : 8
    Format : UTF-8
    Codec ID : S_TEXT/UTF8
    Codec ID/Info : UTF-8 Plain Text
    Duration : 3 h 19 min
    Bit rate : 61 b/s
    Count of elements : 1716
    Stream size : 90.4 KiB (0%)
    Title : Full 1
    Language : Russian
    Default : No
    Forced : No
    Text #3
    ID : 9
    Format : UTF-8
    Codec ID : S_TEXT/UTF8
    Codec ID/Info : UTF-8 Plain Text
    Duration : 3 h 19 min
    Bit rate : 64 b/s
    Count of elements : 1746
    Stream size : 93.8 KiB (0%)
    Title : Full 2
    Language : Russian
    Default : No
    Forced : No
    Text #4
    ID : 10
    Format : UTF-8
    Codec ID : S_TEXT/UTF8
    Codec ID/Info : UTF-8 Plain Text
    Duration : 3 h 19 min
    Bit rate : 38 b/s
    Count of elements : 1748
    Stream size : 55.9 KiB (0%)
    Language : English
    Default : No
    Forced : No
    Рейтинг →
     (голосов: 1, оценка 3/5, голосовать можно 1 раз )

    Другие торренты по теме:

  • Властелин колец: Трилогия (The Lord of the Rings: Trilogy) (Extended Cut) (2001 / 2002 / 2003) [MP4 | 960x400] <BDRip H.264>
  • Властелин колец: Трилогия / The Lord of the Rings: Trilogy (2001,2002,2003) BDRip [H.264] [Extended Editions] скачать через торрент бесплатно
  • Властелин колец / The Lord of the Rings (2001,2002,2003) BDRip [1080p] [Extended Edition] [Трилогия] скачать через торрент бесплатно
  • Властелин колец / The Lord of the Rings (2001,2002,2003) BDRip [Extended Edition] [H.264 / 1080p-LQ] [Hi10P]
  • Властелин колец / The Lord of the Rings (2001,2002,2003) BDRip [1080p] [Extended Edition] [Трилогия]
  • Властелин колец: Братство кольца / The Lord of the Rings: The Fellowship of the Ring (2001) BDRip [720p] [Theatrical Editions] [hand made 60fps] скачать через торрент бесплатно
  • Властелин колец: Две крепости / The Lord of the Rings: The Two Towers (2002) 2*DVD5 [BD -> DVD] [Расширенная версия / Extended edition] скачать через торрент бесплатно
  • Властелин колец: Возвращение короля / The Lord of the Rings: The Return of the King (2003) 2*DVD5 [BD -> DVD] [Расширенная версия / Extended edition] скачать через торрент бесплатно


    • Комментарии (0):

      Информация

      Информация

        Посетители, находящиеся в группе Гости, не могут оставлять комментарии в данной новости.