Подписывайся на наш канал в Telegram https://t.me/torrentok и получи доступ к торрентам без ограничений!
.
Авторизация | Регистрация
torrent123.club
Торрент трекер | Скачать торрент | Скачать Через Торрент | Скачать торрент бесплатно | Скачать торрент без регистрации Другое торрент скачать Хоббит: Нежданное путешествие / The Hobbit: An Unexpected Journey (2012) HybridRip [H.264 / 720p-LQ] [Extended cut] [Open Matte] торрент скачать бесплатно


    Хоббит: Нежданное путешествие / The Hobbit: An Unexpected Journey (2012) HybridRip [H.264 / 720p-LQ] [Extended cut] [Open Matte] торрент скачать бесплатно

    Дата: 17-05-2020, 05:00 | .torrent скачали: 0

    Хоббит: Нежданное путешествие / The Hobbit: An Unexpected Journey (2012) HybridRip [H.264 / 720p-LQ] [Extended cut] [Open Matte]Производство: США, Новая Зеландия/Metro-Goldwyn-Mayer (MGM), New Line Cinema, WingNut Films
    Жанр: фэнтези, приключения, боевик
    Режиссер: Питер Джексон

    Актеры
    Мартин Фриман, Иэн Маккеллен, Ричард Армитедж, Джеймс Несбитт, Кен Стотт, Грэм Мактавиш, Дин О’Горман, Эйдан Тернер, Стивен Хантер, Сильвестр МакКой

    Описание

    Хоббит Бильбо Бэггинс пускается в грандиозный поход, целью которого является отвоевание утраченного королевства гномов Эребор у дракона Смауга. Совершенно неожиданно с хоббитом налаживает контакт волшебник Гэндальф Серый. Так Бильбо находит себя и присоединяется к компании тринадцати гномов, возглавляемых легендарным воином Торином Дубощитом. Их путешествие пройдёт через Дикий Край, предательские земли, населенные гоблинами и орками, смертоносными варгами, гигантскими пауками, меняющим шкуры народом и волшебниками.
    И хотя их цель находится на Востоке, среди пустошей Одинокой Горы, сначала им придется выбраться из туннелей гоблинов, где Бильбо встретит существо, которое изменит его жизнь навсегда — Голлума.

    Возраст: 12+ (зрителям, достигшим 12 лет)
    Рейтинг MPAA: PG-13 (детям до 13 лет просмотр нежелателен)
    Продолжительность: 03: 02: 31
    Качество видео: HybridRip
    Перевод: Дублированный
    Субтитры: русские, английские
    Видео: AVC/H.264, 1280x720, 23.976 fps, ~4470 Kbps
    Аудио 1: AC3, 6 ch, 448 Kbps - Русский (DUB)
    Аудио 2: AC3, 6 ch, 448 Kbps - Английский
    General
    Unique ID : 181979936157641758098702987543623781887 (0x88E80F92B5C6FA99AC0A3E7BEE404DFF)
    Complete name : D: Hobbit. An Unexpected Journey (2012) Hybrid Open Matte 720p.mkv
    Format : Matroska
    Format version : Version 4
    File size : 6.84 GiB
    Duration : 3 h 2 min
    Overall bit rate : 5 368 kb/s
    Movie name : Хоббит: Нежданное путешествие/The Hobbit: An Unexpected Journey (2012) (Extended) (Open Matte) - #LORDKILL#
    Encoded date : UTC 2020-05-14 17: 04: 46
    Writing application : mkvmerge v8.3.0 (\'Over the Horizon\') 32bit
    Writing library : libebml v1.3.1 + libmatroska v1.4.2
    Video
    ID : 1
    Format : AVC
    Format/Info : Advanced Video Codec
    Format profile : High@L4.1
    Format settings : CABAC/9 Ref Frames
    Format settings, CABAC : Yes
    Format settings, Reference : 9 frames
    Codec ID : V_MPEG4/ISO/AVC
    Duration : 3 h 2 min
    Bit rate : 4 470 kb/s
    Width : 1 280 pixels
    Height : 720 pixels
    Display aspect ratio : 16: 9
    Frame rate mode : Constant
    Frame rate : 23.976 (24000/1001) FPS
    Color space : YUV
    Chroma subsampling : 4: 2: 0
    Bit depth : 8 bits
    Scan type : Progressive
    Bits/(Pixel*Frame) : 0.202
    Stream size : 5.70 GiB (83%)
    Writing library : x264 core 159 r2991 1771b55
    Encoding settings : cabac=1/ref=9/deblock=1: -2: -2/analyse=0x3: 0x113/me=umh/subme=10/psy=1/psy_rd=1.00: 0.20/mixed_ref=1/me_range=32/chroma_me=1/trellis=2/8x8dct=1/cqm=0/deadzone=21, 11/fast_pskip=0/chroma_qp_offset=-3/threads=12/lookahead_threads=3/sliced_threads=0/nr=0/decimate=1/interlaced=0/bluray_compat=0/constrained_intra=0/bframes=10/b_pyramid=2/b_adapt=2/b_bias=0/direct=1/weightb=1/open_gop=0/weightp=2/keyint=240/keyint_min=23/scenecut=40/intra_refresh=0/rc=crf/mbtree=0/crf=19.0/qcomp=0.60/qpmin=0/qpmax=69/qpstep=4/ip_ratio=1.40/pb_ratio=1.30/aq=1: 1.00
    Default : Yes
    Forced : No
    Audio #1
    ID : 2
    Format : AC-3
    Format/Info : Audio Coding 3
    Commercial name : Dolby Digital
    Codec ID : A_AC3
    Duration : 3 h 2 min
    Bit rate mode : Constant
    Bit rate : 448 kb/s
    Channel(s) : 6 channels
    Channel layout : L R C LFE Ls Rs
    Sampling rate : 48.0 kHz
    Frame rate : 31.250 FPS (1536 SPF)
    Bit depth : 16 bits
    Compression mode : Lossy
    Stream size : 585 MiB (8%)
    Title : DUB
    Language : Russian
    Service kind : Complete Main
    Default : Yes
    Forced : No
    Audio #2
    ID : 3
    Format : AC-3
    Format/Info : Audio Coding 3
    Commercial name : Dolby Digital
    Codec ID : A_AC3
    Duration : 3 h 2 min
    Bit rate mode : Constant
    Bit rate : 448 kb/s
    Channel(s) : 6 channels
    Channel layout : L R C LFE Ls Rs
    Sampling rate : 48.0 kHz
    Frame rate : 31.250 FPS (1536 SPF)
    Bit depth : 16 bits
    Compression mode : Lossy
    Stream size : 585 MiB (8%)
    Language : English
    Service kind : Complete Main
    Default : No
    Forced : No
    Text #1
    ID : 4
    Format : UTF-8
    Codec ID : S_TEXT/UTF8
    Codec ID/Info : UTF-8 Plain Text
    Duration : 3 h 0 min
    Bit rate : 1 b/s
    Count of elements : 56
    Stream size : 1.95 KiB (0%)
    Title : Forced
    Language : Russian
    Default : Yes
    Forced : No
    Text #2
    ID : 5
    Format : UTF-8
    Codec ID : S_TEXT/UTF8
    Codec ID/Info : UTF-8 Plain Text
    Duration : 3 h 0 min
    Bit rate : 56 b/s
    Count of elements : 2155
    Stream size : 74.2 KiB (0%)
    Title : Full
    Language : Russian
    Default : No
    Forced : No
    Text #3
    ID : 6
    Format : UTF-8
    Codec ID : S_TEXT/UTF8
    Codec ID/Info : UTF-8 Plain Text
    Duration : 2 h 55 min
    Bit rate : 46 b/s
    Count of elements : 2187
    Stream size : 59.3 KiB (0%)
    Language : English
    Default : No
    Forced : No
    Menu
    00: 00: 00.000 : en: Prologue: The Fall of Erebor
    00: 10: 11.903 : en: In a Hole in the Ground There Lived a Hobbit
    00: 14: 08.723 : en: Very Old Friends
    00: 17: 27.255 : en: Mr. Baggins
    00: 18: 44.623 : en: An Unexpected Party
    00: 23: 16.604 : en: Blunt the Knives
    00: 27: 59.469 : en: A Map, A Key and A Contract
    00: 36: 04.871 : en: Misty Mountains
    00: 41: 17.266 : en: ...The World Ahead
    00: 46: 30.830 : en: The Battle of Azanulbizar
    00: 53: 04.181 : en: Radagast the Brown
    00: 58: 07.651 : en: Trollshaws
    00: 59: 55.300 : en: Roast Mutton
    01: 10: 42.405 : en: A Troll-hoard
    01: 15: 01.831 : en: The Hill of Sorcery
    01: 18: 52.811 : en: Warg-scouts
    01: 24: 56.925 : en: Rivendell
    01: 30: 34.429 : en: A Short Rest
    01: 34: 10.603 : en: Moon Runes
    01: 37: 24.464 : en: The Defiler
    01: 39: 03.479 : en: The Last Homely House
    01: 41: 40.803 : en: The White Council
    01: 50: 22.533 : en: Why the Halfling?
    01: 52: 59.773 : en: Over Hill
    01: 59: 06.348 : en: Under Hill
    02: 03: 57.513 : en: The Great Goblin
    02: 09: 51.575 : en: Riddles in the Dark
    02: 23: 21.426 : en: Biter and Beater
    02: 25: 18.877 : en: The Ring
    02: 26: 31.199 : en: Escape from Goblin Town
    02: 30: 52.919 : en: The Pity of Bilbo
    02: 33: 00.546 : en: Home is Behind...
    02: 35: 52.593 : en: Out of the Frying Pan...
    02: 46: 51.210 : en: A Good Omen
    02: 52: 21.373 : en: Credits
    Рейтинг →
     (голосов: 1, оценка 3/5, голосовать можно 1 раз )

    Другие торренты по теме:

  • Хоббит: Нежданное путешествие / The Hobbit: An Unexpected Journey (2012) BDRip [1080p] 3D [Вертикальная анаморфная стереопара] [Extended Cut] скачать через торрент бесплатно
  • Хоббит: Нежданное путешествие / The Hobbit: An Unexpected Journey (2012) BDRemux(BDRip) 3D [1080p] [3D / 2D] [hand made 16:9] [Extended Cut] скачать через торрент бесплатно
  • Хоббит: Нежданное путешествие / The Hobbit: An Unexpected Journey (2012) BDRip 3D [H.264 / 1080p] [Вертикальная анаморфная стереопара] [Directors Cut] [hand made 16:9] скачать через торрент бесплатно
  • Хоббит: Нежданное путешествие / The Hobbit: An Unexpected Journey (2012) BDRip скачать через торрент бесплатно
  • Хоббит: Нежданное путешествие / The Hobbit: An Unexpected Journey (2012) BDRip [H.264 / 1080p] [Directors Cut] [hand made 16:9] скачать через торрент бесплатно
  • Хоббит: Нежданное путешествие / The Hobbit: An Unexpected Journey (2012) BDRemux [H.264 / 1080p] [extended cut]
  • Хоббит: Нежданное путешествие / The Hobbit: An Unexpected Journey (2012) BDRip [H.264 / 1080p] [Hi10P][extended cut]
  • Хоббит: Нежданное путешествие / The Hobbit: An Unexpected Journey (2012) WEB-DLRip [H.264] [Open Matte]


    • Комментарии (0):

      Информация

      Информация

        Посетители, находящиеся в группе Гости, не могут оставлять комментарии в данной новости.