Подписывайся на наш канал в Telegram https://t.me/torrentok и получи доступ к торрентам без ограничений!
.
Авторизация | Регистрация
torrent123.club


В августе 44-го (2001) HybridRip [Полная версия] [hand made] торрент скачать бесплатно

Дата: 19-05-2020, 05:00 | .torrent скачали: 1

В августе 44-го (2001) HybridRip [Полная версия] [hand made]Производство: Россия, Беларусь/Беларусьфильм
Жанр: Боевик, триллер, драма, детектив, военный
Режиссер: Михаил Пташук
Композитор: Александр Градский
Продюсер: Ольга Семаго, Владимир Семаго

Актеры
Евгений Миронов, Владислав Галкин, Юрий Колокольников, Беата Тышкевич, Алексей Петренко, Александр Феклистов, Рамаз Чхиквадзе, Александр Балуев, Ярослав Бойко, Анджей Печиньский

Описание

События происходят в августе 1944 года. На территории освобождённой Белоруссии в тылу советских войск действуют вражеские агенты. В эфир регулярно выходит радиостанция с позывными КАО. Контрразведчикам из СМЕРШа, трём молодым офицерам во главе с капитаном Алёхиным, поручено в кратчайшие сроки разыскать разведгруппу противника.
По роману Владимира Богомолова Момент истины.

Возраст: 16+ (зрителям, достигшим 16 лет)
Продолжительность: 01: 57: 10
Качество видео: HybridRip
Субтитры: Отсутствуют
Видео: Xvid, 640х360, ~1834 Kbps
Аудио: AC3, 2 ch, 192 Kbps - Русский
Общее
Полное имя : V: ФильмыОтечественные о войнеВ августе 44-го... (полная)В августе 44-го (2001, ПОЛНАЯ ВЕРСИЯ).avi
Формат : AVI
Формат/Информация : Audio Video Interleave
Размер файла : 1, 67 Гбайт
Продолжительность : 1 ч. 57 м.
Общий поток : 2035 Кбит/сек
Программа кодирования : VirtualDubModRus 1.5.10.2 (build 2542/release)
Библиотека кодирования : VirtualDubMod build 2542/release
Видео
Идентификатор : 0
Формат : MPEG-4 Visual
Профиль формата : Advanced Simple@L5
Настройки формата : BVOP2
Параметр BVOP формата : 2
Параметр QPel формата : Нет
Параметр GMC формата : Без точки перехода
Параметр матрицы формата : Default (H.263)
Режим смешивания : Сжатый битовый поток
Идентификатор кодека : XVID
Идентификатор кодека/Подсказка : XviD
Продолжительность : 1 ч. 57 м.
Битрейт : 1834 Кбит/сек
Ширина : 640 пикселей
Высота : 360 пикселей
Соотношение сторон : 16: 9
Частота кадров : 25, 000 кадров/сек
Цветовое пространство : YUV
Субдискретизация насыщенности : 4: 2: 0
Битовая глубина : 8 бит
Тип развёртки : Прогрессивная
Метод сжатия : С потерями
Бит/(Пиксели*Кадры) : 0.318
Размер потока : 1, 50 Гбайт (90%)
Библиотека кодирования : XviD 69
Аудио
Идентификатор : 1
Формат : AC-3
Формат/Информация : Audio Coding 3
Коммерческое название : Dolby Digital
Идентификатор кодека : 2000
Продолжительность : 1 ч. 57 м.
Вид битрейта : Постоянный
Битрейт : 192 Кбит/сек
Каналы : 2 канала
ChannelLayout : L R
Частота : 48, 0 КГц
Частота кадров : 31, 250 кадров/сек (1536 SPF)
Битовая глубина : 16 бит
Метод сжатия : С потерями
Размер потока : 161 Мбайт (9%)
Выравнивание : Соединение по промежуткам
Продолжительность промежутка : 40 мс. (1, 00 видеокадр)
Время предзагрузки промежутка : 512 мс.
ServiceKind/String : Complete Main
DVDRip со вставками WEBRip 360p
Рейтинг →
 (голосов: 1, оценка 5/5, голосовать можно 1 раз )

Другие торренты по теме:

  • В августе 44-го (2001) TVRip [H.264] скачать через торрент бесплатно
  • В августе 44-го... (2001) HDTV [H.264 / 1080i]
  • В августе 44-го... (2001) HDTVRip [H.264 / 720p]
  • Секретные материалы 17. В августе 91-го (2016) SATRip
  • Грэм Грин | В августе, по дешевке (2014) [MP3]
  • Рождество в августе / Palwolui Keuriseumaseu (1998) HDRip [VO]
  • Отнесенные необыкновенной судьбой в Лазурное море в августе / Travolti da un insolito destino nellazzurro mare dagosto (1974) Blu-ray [H.264 / 1080p] [Custom]
  • Виктор Носатов | Мгновение истины. В августе четырнадцатого (2018) [FB2]


    • Комментарии (0):

      Информация

      Информация

        Посетители, находящиеся в группе Гости, не могут оставлять комментарии в данной новости.