Подписывайся на наш канал в Telegram https://t.me/torrentok и получи доступ к торрентам без ограничений!
.
Авторизация | Регистрация
torrent123.club


Трон: Наследие / TRON: Legacy (2010) Hybrid [H.264 / 720p] [Open Matte] торрент скачать бесплатно

Дата: 20-05-2020, 05:00 | .torrent скачали: 0

Трон: Наследие / TRON: Legacy (2010) Hybrid [H.264 / 720p] [Open Matte]Производство: США/Walt Disney Pictures, Sean Bailey Productions, John Thomas Special FX
Жанр: фантастика, фэнтези, боевик, приключения
Режиссер: Джозеф Косински

Актеры
Джефф Бриджес, Гаррет Хедлунд, Оливия Уайлд, Брюс Бокслейтнер, Джеймс Фрейн, Бо Гарретт, Майкл Шин, Серинда Свон, Йайа ДаКоста, Элизабет Мэтис

Описание

Сэм Флинн, технически одарённый 27-летний сын Кевина Флинна, начинает расследовать исчезновение своего отца и оказывается втянутым в тот же мир жестоких программ и гладиаторских игр, в котором его отец жил на протяжении 20 лет. Вместе с помощницей Кевина отец и сын пускаются в рискованное путешествие за жизнью по поражающей взгляд кибер-вселенной, которая стала ещё более совершенной и чрезвычайно опасной.

Возраст: 12+ (зрителям, достигшим 12 лет)
Рейтинг MPAA: PG (рекомендуется присутствие родителей)
Релиз от: -=DoMiNo=-
Продолжительность: 02: 05: 28
Качество видео: Hybrid 720p
Перевод: Дублированный
Субтитры: русские (Forced, full), английские (Full)
Видео: AVC/H.264, 1280x720, ~9603 kbps
Аудио 1: AC3, 6 ch, 640 kbps, Русский (DUB)
Аудио 2: AC3, 6 ch, 640 kbps, Английскийx264 info: frame I: 1610 Avg QP: 15.45 size: 150795
x264 info: frame P: 36752 Avg QP: 16.56 size: 86373
x264 info: frame B: 142139 Avg QP: 18.07 size: 39536
x264 info: consecutive B-frames: 2.4% 1.8% 5.7% 12.0% 14.9% 52.3% 5.1% 2.6% 3.0% 0.2%
General
Format : Matroska
Format version : Version 4
File size : 9.54 GiB
Duration : 2 h 5 min
Overall bit rate : 10.9 Mb/s
Movie name : Трон -Наследие.(2010).HybridRip.720p.O.M.-=DoMiNo=-.mkv
Encoded date : UTC 2019-12-14 08: 10: 34
Writing application : mkvmerge v41.0.0 (\'Smarra\') 64-bit
Writing library : libebml v1.3.9 + libmatroska v1.5.2
Attachments : poster.jpg/poster 2.jpg
Video
ID : 1
Format : AVC
Format/Info : Advanced Video Codec
Format profile : High@L4.1
Format settings : CABAC/9 Ref Frames
Format settings, CABAC : Yes
Format settings, Reference : 9 frames
Codec ID : V_MPEG4/ISO/AVC
Duration : 2 h 5 min
Bit rate : 9 603 kb/s
Width : 1 280 pixels
Height : 720 pixels
Display aspect ratio : 16: 9
Frame rate mode : Constant
Frame rate : 23.976 (24000/1001) FPS
Color space : YUV
Chroma subsampling : 4: 2: 0
Bit depth : 8 bits
Scan type : Progressive
Bits/(Pixel*Frame) : 0.435
Stream size : 8.42 GiB (88%)
Title : RIP_BY_-=DoMiNo=-
Writing library : x264 core 158 r2988 7817004
Encoding settings : cabac=1/ref=9/deblock=1: -3: -3/analyse=0x3: 0x133/me=umh/subme=11/psy=1/psy_rd=1.00: 0.15/mixed_ref=1/me_range=32/chroma_me=1/trellis=2/8x8dct=1/cqm=0/deadzone=21, 11/fast_pskip=1/chroma_qp_offset=-3/threads=6/lookahead_threads=1/sliced_threads=0/nr=0/decimate=1/interlaced=0/bluray_compat=0/constrained_intra=0/bframes=9/b_pyramid=2/b_adapt=2/b_bias=0/direct=1/weightb=1/open_gop=0/weightp=2/keyint=250/keyint_min=23/scenecut=40/intra_refresh=0/rc_lookahead=40/rc=crf/mbtree=0/crf=18.0/qcomp=0.60/qpmin=0/qpmax=69/qpstep=4/vbv_maxrate=50000/vbv_bufsize=62500/crf_max=0.0/nal_hrd=none/filler=0/ip_ratio=1.40/pb_ratio=1.30/aq=3: 1.00
Language : English
Default : Yes
Forced : No
Color range : Limited
Color primaries : BT.709
Transfer characteristics : BT.709
Matrix coefficients : BT.709
Audio #1
ID : 2
Format : AC-3
Format/Info : Audio Coding 3
Commercial name : Dolby Digital
Codec ID : A_AC3
Duration : 2 h 5 min
Bit rate mode : Constant
Bit rate : 640 kb/s
Channel(s) : 6 channels
Channel layout : L R C LFE Ls Rs
Sampling rate : 48.0 kHz
Frame rate : 31.250 FPS (1536 SPF)
Compression mode : Lossy
Stream size : 573 MiB (6%)
Title : DUB
Language : Russian
Service kind : Complete Main
Default : Yes
Forced : No
Audio #2
ID : 3
Format : AC-3
Format/Info : Audio Coding 3
Commercial name : Dolby Digital
Codec ID : A_AC3
Duration : 2 h 5 min
Bit rate mode : Constant
Bit rate : 640 kb/s
Channel(s) : 6 channels
Channel layout : L R C LFE Ls Rs
Sampling rate : 48.0 kHz
Frame rate : 31.250 FPS (1536 SPF)
Compression mode : Lossy
Stream size : 573 MiB (6%)
Title : ENG
Language : English
Service kind : Complete Main
Default : No
Forced : No
Text #1
ID : 4
Format : UTF-8
Codec ID : S_TEXT/UTF8
Codec ID/Info : UTF-8 Plain Text
Duration : 1 h 58 min
Bit rate : 0 b/s
Count of elements : 12
Stream size : 432 Bytes (0%)
Title : RUS_Forced
Language : Russian
Default : Yes
Forced : Yes
Text #2
ID : 5
Format : UTF-8
Codec ID : S_TEXT/UTF8
Codec ID/Info : UTF-8 Plain Text
Duration : 1 h 59 min
Bit rate : 61 b/s
Count of elements : 1073
Stream size : 53.7 KiB (0%)
Title : RUS
Language : Russian
Default : No
Forced : No
Text #3
ID : 6
Format : UTF-8
Codec ID : S_TEXT/UTF8
Codec ID/Info : UTF-8 Plain Text
Duration : 1 h 56 min
Bit rate : 36 b/s
Count of elements : 1061
Stream size : 30.9 KiB (0%)
Title : ENG
Language : English
Default : No
Forced : No
Menu
00: 00: 00.000 : en: The Same Team/Одна команда
00: 04: 07.163 : en: All Grown Up/Все взрослеют
00: 14: 44.133 : en: A Visit from a Friend/Визит друга
00: 23: 15.602 : en: The Grid/Система
00: 26: 52.694 : en: Games/Игры
00: 36: 12.211 : en: Not Your Father/Я не твой отец
00: 38: 35.980 : en: Lightcycle Battle/Битва на светоциклах
00: 46: 52.726 : en: The Real Kevin Flynn/Настояший Кевин Флинн
00: 53: 03.763 : en: Father\'s Wisdom/Отцовская мудрость
01: 04: 54.181 : en: Castor/Кастор
01: 13: 47.422 : en: Zuse/Зюс
01: 19: 00.944 : en: She\'s An ISO/Она – изоморф!
01: 22: 40.455 : en: Catching Up/Погоня
01: 25: 50.895 : en: A Deal/Сделка
01: 28: 11.828 : en: A Rescue/Спасение
01: 31: 42.413 : en: Building An Army/Создание армии
01: 43: 13.061 : en: Air Battle/Битва в воздухе
01: 48: 18.033 : en: Flynn\'s Sacrifice/Жертва Флинна
01: 54: 48.381 : en: You Were Right/Ты был прав
01: 58: 03.659 : en: End Credits/Финальные титры
Рейтинг →
 (голосов: 1, оценка 5/5, голосовать можно 1 раз )

Другие торренты по теме:

  • Трон: Наследие / TRON: Legacy (2010) BDRemux [H.264 / 1080p] [IMAX Edition] [hand made 16:9]
  • Трон: Наследие / TRON: Legacy (2010) BDRip [H.265 / 1080p-LQ] [10-bit]
  • Трон: Наследие / TRON: Legacy (2010) BDRip [H.264 / 720p-LQ] [IMAX]
  • Трон: Наследие / TRON: Legacy (2010) Blu-ray [H.264 / 1080p]
  • Трон: Наследие / TRON: Legacy (2010) WEB-DL [H.264 / 1080p-LQ] [Open Matte]
  • Witches Legacy 6: The Dark Throne / Наследие ведьм 6: Темный Трон (2015) [Ru] (1.0) Unofficial [Collectors Edition / Коллекционное издание]
  • Witches Legacy 6: The Dark Throne / Наследие ведьм 6: Трон Тьмы (2015) [Ru] (1.0) Unofficial [Collectors Edition / Коллекционное издание]


    • Комментарии (0):

      Информация

      Информация

        Посетители, находящиеся в группе Гости, не могут оставлять комментарии в данной новости.