Подписывайся на наш канал в Telegram https://t.me/torrentok и получи доступ к торрентам без ограничений!
.
Авторизация | Регистрация
torrent123.club


Бладшот / Bloodshot (2020) BDRip [H.265 / 1080p-LQ] [10-bit] [hand made 60fps] [PR] торрент скачать бесплатно

Дата: 21-05-2020, 05:00 | .torrent скачали: 1

Бладшот / Bloodshot (2020) BDRip [H.265 / 1080p-LQ] [10-bit] [hand made 60fps] [PR]Производство: Китай, США/Columbia Pictures, Cross Creek Pictures, Bona Film Group
Жанр: Фантастика, Боевик
Режиссер: Дэйв Уилсон

Актеры
Вин Дизель, Сэм Хьюэн, Эйса Гонсалес, Талула Райли, Тоби Кеббелл, Гай Пирс, Ламорн Моррис, Йоуханнес Хёйкьюр Йоуханнессон, Сиддхартх Дхананджай, Алекс Эрнандез

Описание

Военный Рэй Гаррисон возвращается из очередной горячей точки к любимой красавице-жене. Супруги проводят отпуск в Европе, но счастье длится недолго — террористы, не сумев вытянуть из Рэя нужную им информацию, убивают жену, а затем и его самого. Но вскоре корпорация RST возвращает его к жизни. Армия нанороботов в крови превратила Рэя в бессмертного Бладшота, и теперь солдат наделен сверхсилой и способностью мгновенно самоисцеляться, вот только память оставляет желать лучшего. Но вскоре воспоминания о последних мгновениях жизни возвращаются, и Бладшот отправляется мстить за смерть жены.
Релиз от: DD2D3

Возраст: 16+ (зрителям, достигшим 16 лет)
Рейтинг MPAA: PG-13 (детям до 13 лет просмотр нежелателен)
Дата мировой премьеры: 20 февраля 2020
Дата российской премьеры: 12 марта 2020, СППР
Продолжительность: 01: 49: 19
Качество видео: BDRip
Перевод: Дублированный (iTunes)
Субтитры: Русские (Full)
Видео: HEVC, 1920x804, 59.940 fps, ~5000 kbps
Аудио: AC-3, 6 ch, 384 kbps (Russian)
General
Unique ID : 240188596747736602058648258963130192362 (0xB4B2A41DAABCE9CDBF3C58B5ECBE91EA)
Complete name : D: Bloodshot (2020) BDRip - HEVC 1080p 10bit 60 FPS.mkv
Format : Matroska
Format version : Version 4
File size : 4.12 GiB
Duration : 1 h 49 min
Overall bit rate : 5 396 kb/s
Movie name : Rip by from DD2D3
Encoded date : UTC 2020-05-19 12: 30: 02
Writing application : mkvmerge v10.0.0 (\'To Drown In You\') 32bit
Writing library : libebml v1.3.4 + libmatroska v1.4.5
Attachments : poster
Video
ID : 1
Format : HEVC
Format/Info : High Efficiency Video Coding
Format profile : Main10@L4.1@Main
Codec ID : V_MPEGH/ISO/HEVC
Duration : 1 h 49 min
Bit rate : 5 004 kb/s
Width : 1 920 pixels
Height : 804 pixels
Display aspect ratio : 2.40: 1
Frame rate mode : Constant
Frame rate : 59.940 (60000/1001) FPS
Color space : YUV
Chroma subsampling : 4: 2: 0
Bit depth : 10 bits
Bits/(Pixel*Frame) : 0.054
Stream size : 3.82 GiB (93%)
Writing library : x265 2.3+33-0b7d54dbb71a87a0: WindowsMSVC 180064 bit 10bit: KG7x x265.ru
Encoding settings : cpuid=1173503/frame-threads=2/numa-pools=4/wpp/no-pmode/no-pme/no-psnr/no-ssim/log-level=2/input-csp=1/input-res=1920x804/interlace=0/total-frames=393176/level-idc=41/high-tier=1/uhd-bd=0/ref=3/no-allow-non-conformance/no-repeat-t_heads/annexb/no-aud/no-hrd/info/hash=0/no-temporal-layers/open-gop/min-keyint=25/keyint=250/bframes=4/b-adapt=2/b-pyramid/bframe-bias=0/rc-lookahead=20/lookahead-slices=5/scenecut=40/no-intra-refresh/ctu=64/min-cu-size=8/no-rect/no-amp/max-tu-size=32/tu-inter-depth=1/tu-intra-depth=1/limit-tu=0/rdoq-level=0/dynamic-rd=0.00/no-ssim-rd/signhide/no-tskip/nr-intra=0/nr-inter=0/no-constrained-intra/strong-intra-smoothing/max-merge=2/limit-refs=3/no-limit-modes/me=1/subme=2/merange=57/temporal-mvp/weightp/no-weightb/no-analyze-src-pics/deblock=0: 0/no-sao/no-sao-non-deblock/rd=3/no-early-skip/no-rskip/no-fast-intra/no-tskip-fast/no-cu-lossless/no-b-intra/rdpenalty=0/psy-rd=4.00/psy-rdoq=0.00/no-rd-refine/analysis-mode=0/no-lossless/cbqpoffs=0/crqpoffs=0/rc=abr/bitrate=5000/qcomp=0.60/qpstep=1/stats-write=0/stats-read=2/cplxblur=20.0/qblur=0.5/ipratio=1.10/pbratio=1.00/aq-mode=0/aq-strength=0.00/no-cutree/zone-count=0/no-strict-cbr/qg-size=64/rc-grain/qpmax=69/qpmin=0/sar=1/overscan=0/videoformat=5/range=0/colorprim=2/transfer=2/colormatrix=2/chromaloc=0/display-window=0/max-cll=0, 0/min-luma=0/max-luma=1023/log2-max-poc-lsb=8/vui-timing-info/vui-hrd-info/slices=1/opt-qp-pps/opt-ref-list-length-pps/no-multi-pass-opt-rps/scenecut-bias=0.05/no-opt-cu-delta-qp/no-aq-motion/no-hdr/no-hdr-opt/refine-level=5/no-limit-sao
Default : Yes
Forced : No
Audio
ID : 2
Format : AC-3
Format/Info : Audio Coding 3
Commercial name : Dolby Digital
Codec ID : A_AC3
Duration : 1 h 49 min
Bit rate mode : Constant
Bit rate : 384 kb/s
Channel(s) : 6 channels
Channel layout : L R C LFE Ls Rs
Sampling rate : 48.0 kHz
Frame rate : 31.250 FPS (1536 SPF)
Bit depth : 16 bits
Compression mode : Lossy
Stream size : 300 MiB (7%)
Title : iTunes
Language : Russian
Service kind : Complete Main
Default : Yes
Forced : Yes
Text
ID : 3
Format : UTF-8
Codec ID : S_TEXT/UTF8
Codec ID/Info : UTF-8 Plain Text
Duration : 1 h 48 min
Bit rate : 72 b/s
Count of elements : 1072
Stream size : 57.8 KiB (0%)
Title : Full
Language : Russian
Default : No
Forced : No
Menu
00: 00: 00.000 : en: Chapter 01
00: 07: 06.384 : en: Chapter 02
00: 13: 56.210 : en: Chapter 03
00: 20: 36.861 : en: Chapter 04
00: 25: 05.546 : en: Chapter 05
00: 32: 11.179 : en: Chapter 06
00: 41: 41.499 : en: Chapter 07
00: 46: 39.380 : en: Chapter 08
00: 53: 35.629 : en: Chapter 09
01: 02: 28.495 : en: Chapter 10
01: 08: 59.344 : en: Chapter 11
01: 12: 42.525 : en: Chapter 12
01: 19: 15.918 : en: Chapter 13
01: 26: 49.996 : en: Chapter 14
01: 31: 07.379 : en: Chapter 15
01: 38: 31.531 : en: Chapter 16
01: 44: 11.245 : en: Chapter 17
Скриншоты для ознакомления


Все одноименные релизы в Клубе
Время раздачи: 24/7 (до появления первых 3-5 скачавших)
Рейтинг →
 (голосов: 1, оценка 4/5, голосовать можно 1 раз )

Другие торренты по теме:

  • Бладшот / Bloodshot (2020) CamRip [DVO, AD]
  • Бладшот / Bloodshot (2020) WEB-DLRip [H.264 / 1080p-LQ] [Line, AD]
  • Бладшот / Bloodshot (2020) WEB-DLRip [H.264 / 720p-LQ] [Line, AD]
  • Бладшот / Bloodshot (2020) WEB-DLRip [Line, AD]
  • Бладшот / Bloodshot (2020) WEB-DL [H.265 / 2160p] [4K, SDR, 10-bit] [EN / EN Sub]
  • Бладшот / Bloodshot (2020) WEB-DL [H.264 / 1080p] [MVO]
  • Бладшот / Bloodshot (2020) WEB-DL [H.264 / 720p] [MVO]
  • Бладшот / Bloodshot (2020) WEB-DLRip [MVO]


    • Комментарии (0):

      Информация

      Информация

        Посетители, находящиеся в группе Гости, не могут оставлять комментарии в данной новости.