Подписывайся на наш канал в Telegram https://t.me/torrentok и получи доступ к торрентам без ограничений!
.
Авторизация | Регистрация
torrent123.club


Тайна супа с клецками / Grießnockerlaffare / The Dumpling Affair (2017) HDRip [DVO] [AD] торрент скачать бесплатно

Дата: 27-05-2020, 05:00 | .torrent скачали: 1

Тайна супа с клецками / Grießnockerlaffare / The Dumpling Affair (2017) HDRip [DVO] [AD]Производство: Германия/Constantin Film, ARD Degeto Film, Bayerischer Rundfunk
Жанр: Комедия, Криминал, Драма
Режиссер: Эд Херцог

Актеры
Нора фон Вальдштеттен, Симон Шварц, Лиза Поттхофф, Маргарете Тизель, Лилит Штангенберг, Себастиан Беццель, Франсис Фултон-Смит, Герхард Либманн, Франциска Сингер, Энци Фукс

Описание

Офицера полиции Франца Эберхофера будят среди ночи и он узнает, что его начальник Баршль был убит. Орудием убийства стал нож Франца, поэтому он становится главным подозреваемым в убийстве ненавистного босса.

Продолжительность: 01: 39: 55
Качество видео: HDRip
Перевод: Двуголосый любительский - Синема УС
Субтитры: отсутствуют
Реклама: присутствуют аудио, видео и баннерные вставки рекламы
Видео: Xvid, 720x384, ~1566 Kbps
Аудио: AC3, 2 ch, 384 Kbps - Русский (DVO)
General
Complete name : /media/win/un/3/TauHa_Cyna_C_K.L.eIIKaMu_2017_HDRip_AD.avi
Format : AVI
Format/Info : Audio Video Interleave
File size : 1.37 GiB
Duration : 1 h 39 min
Overall bit rate : 1 959 kb/s
Writing application : VirtualDubMod 1.5.10.3 |www.virtualdub-fr.org|| (build 2550/release)
Writing library : VirtualDubMod build 2550/release
Video
ID : 0
Format : MPEG-4 Visual
Format profile : Advanced Simple@L5
Format settings : BVOP2/Custom Matrix
Format settings, BVOP : 2
Format settings, QPel : No
Format settings, GMC : No warppoints
Format settings, Matrix : Custom
Codec ID : XVID
Codec ID/Hint : XviD
Duration : 1 h 39 min
Bit rate : 1 566 kb/s
Width : 720 pixels
Height : 384 pixels
Display aspect ratio : 1.85: 1
Frame rate : 23.976 (24000/1001) FPS
Color space : YUV
Chroma subsampling : 4: 2: 0
Bit depth : 8 bits
Scan type : Progressive
Compression mode : Lossy
Bits/(Pixel*Frame) : 0.236
Stream size : 1.09 GiB (80%)
Writing library : XviD 1.2.1 (UTC 2008-12-04)
Audio
ID : 1
Format : AC-3
Format/Info : Audio Coding 3
Commercial name : Dolby Digital
Codec ID : 2000
Duration : 1 h 39 min
Bit rate mode : Constant
Bit rate : 384 kb/s
Channel(s) : 2 channels
Channel layout : L R
Sampling rate : 48.0 kHz
Frame rate : 31.250 FPS (1536 SPF)
Compression mode : Lossy
Stream size : 274 MiB (20%)
Alignment : Split across interleaves
Interleave, duration : 42 ms (1.00 video frame)
Interleave, preload duration : 500 ms
Service kind : Complete Main
Рейтинг →
 (голосов: 1, оценка 4/5, голосовать можно 1 раз )

Другие торренты по теме:

  • NG. Тайна морского дьявола / Тайна Морского Дьявола (2011) HDTVRip [H.264 / 1080i-LQ]
  • Военная тайна с Игорем Прокопенко (27.09.2014) SATRip
  • Миккель Биркегор | Тайна "Libri di Luсa" (2014) [MP3]
  • Тайна королевы Анны или Мушкетеры тридцать лет спустя (1993) DVDRip [H.264] скачать через торрент бесплатно
  • Военная тайна с Игорем Прокопенко (2014.10.04) SATRip скачать через торрент бесплатно
  • Тайна Туринской Плащаницы. Епископ Василий(Родзянко) (2006) DVD5
  • Военная тайна с Игорем Прокопенко (2014.10.11) SATRip
  • Тайна инспектора Пита / Палач Кейтер-Стрит / The Inspector Pitt Mysteries / The Cater Street Hangman (1998) TVRip


    • Комментарии (0):

      Информация

      Информация

        Посетители, находящиеся в группе Гости, не могут оставлять комментарии в данной новости.