Подписывайся на наш канал в Telegram https://t.me/torrentok и получи доступ к торрентам без ограничений!
.
Авторизация | Регистрация
torrent123.club


Свинина Аль Денте / Schweinskopf al dente (2016) HDTVRip [MVO] [AD] торрент скачать бесплатно

Дата: 27-05-2020, 05:00 | .torrent скачали: 1

Свинина Аль Денте / Schweinskopf al dente (2016) HDTVRip [MVO] [AD]Производство: Германия/Constantin Film
Жанр: Комедия, Криминал
Режиссер: Эд Херцог

Актеры
Ливия Маттес, Франсис Фултон-Смит, Симон Шварц, Себастиан Беццель, Лиза Поттхофф, Мария Хофштаттер, Грегор Блоеб, Энци Фукс, Гюнтер Гиллиан, Михаэль Островский

Описание

В маленьком немецком поселении полицейские редко хватаются за оружие. Только в исключительных случаях. Францу, блюстителю порядка из Ландсхута посчастливилось работать именно в этот период. Тем более, что опасный психопат и серийный убийца открыл охоту на его непосредственного руководителя. Герой попытается упечь за решетку хитроумного психа, а так же единовременно решить множество личных проблем.

Продолжительность: 01: 31: 34
Качество видео: HDTVRip
Перевод: Многоголосый любительский (КОЛОБОК)
Субтитры: Немецкие (вшитые), Китайские (вшитые)
Реклама: присутствуют аудио, видео и баннерные вставки рекламы
Видео: Xvid, 720x384, ~1744 Kbps
Аудио: AC3, 2 ch, 384 Kbps - Русский (MVO)
General
Complete name : /media/win/un/3/CBuHuHa_A.L.b_geHme_2018_HDTVRip_AD.avi
Format : AVI
Format/Info : Audio Video Interleave
File size : 1.37 GiB
Duration : 1 h 31 min
Overall bit rate : 2 137 kb/s
Writing application : VirtualDubMod 1.5.10.2 (build 2540/release)
Writing library : VirtualDubMod build 2540/release
Video
ID : 0
Format : MPEG-4 Visual
Format profile : Advanced Simple@L5
Format settings : BVOP2/Custom Matrix
Format settings, BVOP : 2
Format settings, QPel : No
Format settings, GMC : No warppoints
Format settings, Matrix : Custom
Codec ID : XVID
Codec ID/Hint : XviD
Duration : 1 h 31 min
Bit rate : 1 744 kb/s
Width : 720 pixels
Height : 384 pixels
Display aspect ratio : 1.85: 1
Frame rate : 23.976 (24000/1001) FPS
Color space : YUV
Chroma subsampling : 4: 2: 0
Bit depth : 8 bits
Scan type : Progressive
Compression mode : Lossy
Bits/(Pixel*Frame) : 0.263
Stream size : 1.12 GiB (82%)
Writing library : XviD 1.2.1 (UTC 2008-12-04)
Audio
ID : 1
Format : AC-3
Format/Info : Audio Coding 3
Commercial name : Dolby Digital
Codec ID : 2000
Duration : 1 h 31 min
Bit rate mode : Constant
Bit rate : 384 kb/s
Channel(s) : 2 channels
Channel layout : L R
Sampling rate : 48.0 kHz
Frame rate : 31.250 FPS (1536 SPF)
Compression mode : Lossy
Stream size : 252 MiB (18%)
Alignment : Split across interleaves
Interleave, duration : 42 ms (1.00 video frame)
Interleave, preload duration : 500 ms
Service kind : Complete Main

Скриншоты для ознакомления



Все одноименные релизы в Клубе
Время раздачи: с 08: 00 до 23: 00 (до появления первых 3-5 скачавших)
Рейтинг →
 (голосов: 1, оценка 5/5, голосовать можно 1 раз )

Другие торренты по теме:

  • Журнал | Библиотека журнала «Приготовь» №10. Свинина и баранина (2015) [PDF] скачать через торрент бесплатно


    • Комментарии (0):

      Информация

      Информация

        Посетители, находящиеся в группе Гости, не могут оставлять комментарии в данной новости.