Подписывайся на наш канал в Telegram https://t.me/torrentok и получи доступ к торрентам без ограничений!
.
Авторизация | Регистрация
torrent123.club


Колбасный торчок / Leberkasjunkie (2019) HDRip [DVO] [AD] торрент скачать бесплатно

Дата: 28-05-2020, 05:01 | .torrent скачали: 1

Колбасный торчок / Leberkasjunkie (2019) HDRip [DVO] [AD]Производство: Германия/Constantin Film
Жанр: Комедия, Криминал
Режиссер: Эд Херцог

Актеры
Себастиан Беццель, Симон Шварц, Лиза Поттхофф, Фредерик Линкеманн, Даниэль Кристенсен, Аница Добра, Castro Dokyi, Айзи Гульп, Мориц Кацмаир, Лара Мэндоки

Описание

Немецкая криминальная комедия про веселого полицейского, Франца Эберхофера - любителя хорошо и сытно покушать. Главный герой вместе со своим другом - частным детективом, Руди Биркенбергером, пытается распутать очередное странное убийство, произошедшее в небольшом баварском городке.

Продолжительность: 01: 37: 38
Качество видео: HDRip
Перевод: Двуголосый любительский (Синема УС)
Субтитры: отсутствуют
Реклама: присутствуют аудио, видео и баннерные вставки рекламы
Видео: Xvid, 720x384, ~1613 Kbps
Аудио: AC3, 2 ch, 384 Kbps - Русский (DVO)
General
Complete name : /media/win/un/3/K0.L.6acHbIu_T0p40K_2019_HDRip_AD.avi
Format : AVI
Format/Info : Audio Video Interleave
File size : 1.37 GiB
Duration : 1 h 37 min
Overall bit rate : 2 006 kb/s
Writing application : VirtualDubMod 1.5.10.3 |www.virtualdub-fr.org|| (build 2550/release)
Writing library : VirtualDubMod build 2550/release
Video
ID : 0
Format : MPEG-4 Visual
Format profile : Advanced Simple@L5
Format settings : BVOP2/Custom Matrix
Format settings, BVOP : 2
Format settings, QPel : No
Format settings, GMC : No warppoints
Format settings, Matrix : Custom
Codec ID : XVID
Codec ID/Hint : XviD
Duration : 1 h 37 min
Bit rate : 1 613 kb/s
Width : 720 pixels
Height : 384 pixels
Display aspect ratio : 1.85: 1
Frame rate : 23.976 (24000/1001) FPS
Color space : YUV
Chroma subsampling : 4: 2: 0
Bit depth : 8 bits
Scan type : Progressive
Compression mode : Lossy
Bits/(Pixel*Frame) : 0.243
Stream size : 1.10 GiB (80%)
Writing library : XviD 1.2.1 (UTC 2008-12-04)
Audio
ID : 1
Format : AC-3
Format/Info : Audio Coding 3
Commercial name : Dolby Digital
Codec ID : 2000
Duration : 1 h 37 min
Bit rate mode : Constant
Bit rate : 384 kb/s
Channel(s) : 2 channels
Channel layout : L R
Sampling rate : 48.0 kHz
Frame rate : 31.250 FPS (1536 SPF)
Compression mode : Lossy
Stream size : 268 MiB (19%)
Alignment : Split across interleaves
Interleave, duration : 42 ms (1.00 video frame)
Interleave, preload duration : 500 ms
Service kind : Complete Main

Скриншоты для ознакомления



Все одноименные релизы в Клубе
Время раздачи: с 08: 00 до 23: 00 (до появления первых 3-5 скачавших)
Рейтинг →
 (голосов: 1, оценка 4/5, голосовать можно 1 раз )

Другие торренты по теме:

  • Контрольная закупка -Копченый колбасный сыр (21.04.2015) SATRip скачать через торрент бесплатно
  • Э. Реттиг | Русский колбасный фабрикант. Руководство для рациональной фабрикации колбас (1909) [PDF]


    • Комментарии (0):

      Информация

      Информация

        Посетители, находящиеся в группе Гости, не могут оставлять комментарии в данной новости.