Подписывайся на наш канал в Telegram https://t.me/torrentok и получи доступ к торрентам без ограничений!
.
Авторизация | Регистрация
torrent123.club


Джентльмены / The Gentlemen (2019) BDRip [H.265 / 1080p-LQ] [hand made 60fps] [PR] торрент скачать бесплатно

Дата: 1-06-2020, 05:02 | .torrent скачали: 1

Джентльмены / The Gentlemen (2019) BDRip [H.265 / 1080p-LQ] [hand made 60fps] [PR]Производство: Великобритания, США/STX Films, Miramax, Toff Guy Films
Жанр: боевик, комедия, криминал
Режиссер: Гай Ричи

Актеры
Мэттью МакКонахи, Чарли Ханнэм, Мишель Докери, Джереми Стронг, Лайн Рени, Колин Фаррелл, Генри Голдинг, Том Ву, Эдди Марсан, Хью Грант, Джейсон Вонг

Описание
Один ушлый американец ещё со студенческих лет приторговывал наркотиками, а теперь придумал схему нелегального обогащения с использованием поместий обедневшей английской аристократии и очень неплохо на этом разбогател. Другой пронырливый журналист приходит к Рэю, правой руке американца, и предлагает тому купить киносценарий, в котором подробно описаны преступления его босса при участии других представителей лондонского криминального мира — партнёра-еврея, китайской диаспоры, чернокожих спортсменов и даже русского олигарха.

Возраст: 18+ (зрителям, достигшим 18 лет. запрещено для детей)
Рейтинг MPAA: R (лицам до 17 лет обязательно присутствие взрослого)
Дата мировой премьеры: 3 декабря 2019
Дата российской премьеры: 13 февраля 2020, Вольга
Продолжительность: 01: 53: 40
Качество видео: BDRip
Перевод: Дублированный, авторский
Субтитры: Русские (Forcеd)
Видео: HEVC/H.265, 1920x804, ~4504 Kbps
Аудио 1: AC3, 6 ch, 384 Kbps - Русский, дублированный (iTunes)
Аудио 2: AC3, 6 ch, 640 Kbps - Русский, авторский (Пучков Goblin)
Общее
Уникальный идентификатор : 23585264729049823284456227733567668578 (0x11BE5B548B68C049388943E9BC4B8162)
Полное имя : D: The Gentlemen (2020) BDRip - HEVC 1080p 60 FPS.mkv
Формат : Matroska
Версия формата : Version 4
Размер файла : 4, 39 Гбайт
Продолжительность : 1 ч. 53 м.
Общий поток : 5 534 Кбит/сек
Дата кодирования : UTC 2020-05-30 12: 49: 40
Программа кодирования : mkvmerge v44.0.0 (\'Domino\') 64-bit
Библиотека кодирования : libebml v1.3.10 + libmatroska v1.5.2
Attachments : poster
Видео
Идентификатор : 1
Формат : HEVC
Формат/Информация : High Efficiency Video Coding
Профиль формата : Main@L4.1@Main
Идентификатор кодека : V_MPEGH/ISO/HEVC
Продолжительность : 1 ч. 53 м.
Битрейт : 4 504 Кбит/сек
Ширина : 1 920 пикселей
Высота : 804 пикселя
Соотношение сторон : 2, 40: 1
Режим частоты кадров : Постоянный
Частота кадров : 59, 940 (60000/1001) кадров/сек
Цветовое пространство : YUV
Субдискретизация насыщенности : 4: 2: 0
Битовая глубина : 8 бит
Бит/(Пиксели*Кадры) : 0.049
Размер потока : 3, 58 Гбайт (81%)
Библиотека кодирования : x265 2.3+33-0b7d54dbb71a87a0: WindowsMSVC 180064 bit 8bit: KG7x x265.ru
Настройки программы : cpuid=1173503/frame-threads=2/numa-pools=4/wpp/no-pmode/no-pme/no-psnr/no-ssim/log-level=2/input-csp=1/input-res=1920x804/interlace=0/total-frames=408791/level-idc=41/high-tier=1/uhd-bd=0/ref=3/no-allow-non-conformance/no-repeat-t_heads/annexb/no-aud/no-hrd/info/hash=0/no-temporal-layers/open-gop/min-keyint=25/keyint=250/bframes=4/b-adapt=2/b-pyramid/bframe-bias=0/rc-lookahead=20/lookahead-slices=5/scenecut=40/no-intra-refresh/ctu=64/min-cu-size=8/no-rect/no-amp/max-tu-size=32/tu-inter-depth=1/tu-intra-depth=1/limit-tu=0/rdoq-level=0/dynamic-rd=0.00/no-ssim-rd/signhide/no-tskip/nr-intra=0/nr-inter=0/no-constrained-intra/strong-intra-smoothing/max-merge=2/limit-refs=3/no-limit-modes/me=1/subme=2/merange=57/temporal-mvp/weightp/no-weightb/no-analyze-src-pics/deblock=0: 0/no-sao/no-sao-non-deblock/rd=3/no-early-skip/no-rskip/no-fast-intra/no-tskip-fast/no-cu-lossless/no-b-intra/rdpenalty=0/psy-rd=4.00/psy-rdoq=0.00/no-rd-refine/analysis-mode=0/no-lossless/cbqpoffs=0/crqpoffs=0/rc=abr/bitrate=4500/qcomp=0.60/qpstep=1/stats-write=0/stats-read=2/cplxblur=20.0/qblur=0.5/ipratio=1.10/pbratio=1.00/aq-mode=0/aq-strength=0.00/no-cutree/zone-count=0/no-strict-cbr/qg-size=64/rc-grain/qpmax=69/qpmin=0/sar=1/overscan=0/videoformat=5/range=0/colorprim=2/transfer=2/colormatrix=2/chromaloc=0/display-window=0/max-cll=0, 0/min-luma=0/max-luma=255/log2-max-poc-lsb=8/vui-timing-info/vui-hrd-info/slices=1/opt-qp-pps/opt-ref-list-length-pps/no-multi-pass-opt-rps/scenecut-bias=0.05/no-opt-cu-delta-qp/no-aq-motion/no-hdr/no-hdr-opt/refine-level=5/no-limit-sao
Default : Да
Forced : Нет
Аудио #1
Идентификатор : 2
Формат : AC-3
Формат/Информация : Audio Coding 3
Коммерческое название : Dolby Digital
Идентификатор кодека : A_AC3
Продолжительность : 1 ч. 53 м.
Вид битрейта : Постоянный
Битрейт : 384 Кбит/сек
Каналы : 6 каналов
Channel layout : L R C LFE Ls Rs
Частота : 48, 0 КГц
Частота кадров : 31, 250 кадров/сек (1536 SPF)
Метод сжатия : С потерями
Размер потока : 312 Мбайт (7%)
Заголовок : DUB - iTunes
Язык : Russian
Service kind : Complete Main
Default : Да
Forced : Да
Аудио #2
Идентификатор : 3
Формат : AC-3
Формат/Информация : Audio Coding 3
Коммерческое название : Dolby Digital
Идентификатор кодека : A_AC3
Продолжительность : 1 ч. 53 м.
Вид битрейта : Постоянный
Битрейт : 640 Кбит/сек
Каналы : 6 каналов
Channel layout : L R C LFE Ls Rs
Частота : 48, 0 КГц
Частота кадров : 31, 250 кадров/сек (1536 SPF)
Метод сжатия : С потерями
Размер потока : 520 Мбайт (12%)
Заголовок : AVO - Д. Пучков (Гоблин)
Язык : Russian
Service kind : Complete Main
Default : Нет
Forced : Нет
Текст
Идентификатор : 4
Формат : UTF-8
Идентификатор кодека : S_TEXT/UTF8
Идентификатор кодека/Информация : UTF-8 Plain Text
Продолжительность : 1 ч. 45 м.
Битрейт : 4 бит/сек
Count of elements : 46
Размер потока : 3, 37 Кбайт (0%)
Заголовок : Forced
Язык : Russian
Default : Да
Forced : Нет
Меню
00: 00: 00.000 : en: Chapter 1
00: 04: 27.100 : en: Chapter 2
00: 08: 16.413 : en: Chapter 3
00: 13: 42.780 : en: Chapter 4
00: 19: 21.494 : en: Chapter 5
00: 24: 49.988 : en: Chapter 6
00: 30: 23.530 : en: Chapter 7
00: 37: 17.944 : en: Chapter 8
00: 41: 55.430 : en: Chapter 9
00: 48: 38.874 : en: Chapter 10
00: 56: 51.199 : en: Chapter 11
01: 03: 34.102 : en: Chapter 12
01: 08: 45.038 : en: Chapter 13
01: 14: 18.204 : en: Chapter 14
01: 19: 05.991 : en: Chapter 15
01: 24: 30.023 : en: Chapter 16
01: 29: 24.776 : en: Chapter 17
01: 34: 21.114 : en: Chapter 18
01: 40: 11.130 : en: Chapter 19
01: 48: 37.511 : en: Chapter 20
Скриншоты для ознакомления


Все одноименные релизы в Клубе
Время раздачи: 24/7 (до появления первых 3-5 скачавших)
Рейтинг →
 (голосов: 1, оценка 3/5, голосовать можно 1 раз )

Другие торренты по теме:

  • Джентльмены женятся на брюнетках / Gentlemen Marry Brunettes (1955) HDTV [H.264 / 1080i] скачать через торрент бесплатно
  • Джентльмены женятся на брюнетках / Gentlemen Marry Brunettes (1955) HDTVRip [H.264]
  • Chris Benstead - The Gentlemen / Джентльмены (Original Motion Picture Soundtrack) (2019) [FLAC2.0|48 / 24|tracks|WEB-DL] <Soundtrack>
  • Chris Benstead - The Gentlemen / Джентльмены (Original Motion Picture Soundtrack) (2019) [FLAC|Lossless|WEB-DL|tracks]<Soundtrack>
  • Chris Benstead - The Gentlemen / Джентльмены (Original Motion Picture Soundtrack) (2019) [MP3|320 кб / с]<Soundtrack>
  • Джентльмены / The Gentlemen (2019) WEB-DLRip [H.264 / 1080p-LQ] [Line, AD]
  • Джентльмены / The Gentlemen (2019) WEB-DLRip [H.264 / 720p-LQ] [Line, AD]
  • Джентльмены / The Gentlemen (2019) WEB-DLRip [MVO]


    • Комментарии (0):

      Информация

      Информация

        Посетители, находящиеся в группе Гости, не могут оставлять комментарии в данной новости.