Подписывайся на наш канал в Telegram https://t.me/torrentok и получи доступ к торрентам без ограничений!
.
Авторизация | Регистрация
torrent123.club


Кинг Конг / King Kong (2005) Hybrid [H.264 / 1080p] [Open Matte] [Extended Cut] торрент скачать бесплатно

Дата: 3-06-2020, 05:00 | .torrent скачали: 1

Кинг Конг / King Kong (2005) Hybrid [H.264 / 1080p] [Open Matte] [Extended Cut]Производство: Германия, США, Новая Зеландия/Universal Pictures, WingNut Films, Big Primate Pictures
Жанр: Боевик, Драма, Мелодрама, Приключения, Фэнтези
Режиссер: Питер Джексон

Актеры
Наоми Уоттс, Эдриан Броуди, Джек Блэк, Томас Кречман, Энди Серкис, Колин Хэнкс, Джейми Белл, Кайл Чандлер, Эван Парк, Лобо Чан

Описание

В 1930-м году съемочная группа под предводительством режиссера-неудачника Карла Дэнхэма отправляется на загадочный Остров Черепа неподалеку от Суматры, чтобы изучать легенды о гигантской горилле по кличке Конг. По прибытии не место они обнаруживают, что Кинг Конг и правда существует.
Горилла живет в самой чаще непроходимых джунглей, где помимо него, спрятанные от всего мира, обитают многие создания из доисторических времен. Исследователи оказываются между двух огней - с одной стороны Кинг Конг, а с другой - его враги динозавры...

Возраст: 12+ (зрителям, достигшим 12 лет)
Рейтинг MPAA: PG-13 (детям до 13 лет просмотр нежелателен)
Продолжительность: 03: 20: 09
Качество видео: Hybrid 1080p
Перевод: Полное дублирование + псевдодубляж на пропуски, Профессиональный (многоголосый закадровый), Профессиональный (двухголосый закадровый)
Субтитры: русские (надписи, полные), английские
Видео: AVC/H.264, 1920x1080, ~12, 4 Mbps
Аудио 1: Russian AC3/5.1/448 kbps | Дубляж |
Аудио 2: Russian AC3/5.1/448 kbps | MVO Киномания |
Аудио 3: Russian AC3/5.1/448 kbps | DVO П. Гланц и И. Королёва |
Аудио 4: English AC3/5.1/448 kbps | Original |
Общее
Уникальный идентификатор : 95480100265559466733230197576061168392 (0x47D4CC6537A1FAE54969292F0CDC2B08)
Полное имя : F: ВидеоKing Kong (2005) Hybrid 1080p Open Matte.mkv
Формат : Matroska
Версия формата : Version 4
Размер файла : 19, 9 Гбайт
Продолжительность : 3 ч. 20 м.
Общий поток : 14, 2 Мбит/сек
Дата кодирования : UTC 2020-06-02 07: 07: 58
Программа кодирования : mkvmerge v46.0.0 (\'No Deeper Escape\') 64-bit
Библиотека кодирования : libebml v1.3.10 + libmatroska v1.5.2
Видео
Идентификатор : 1
Формат : AVC
Формат/Информация : Advanced Video Codec
Профиль формата : High@L4.1
Настройки формата : CABAC/4 Ref Frames
Параметр CABAC формата : Да
Параметр RefFrames формата : 4 кадра
Идентификатор кодека : V_MPEG4/ISO/AVC
Продолжительность : 3 ч. 20 м.
Битрейт : 12, 4 Мбит/сек
Ширина : 1920 пикселей
Высота : 1080 пикселей
Соотношение сторон : 16: 9
Режим частоты кадров : Постоянный
Частота кадров : 23, 976 (24000/1001) кадра/сек
Цветовое пространство : YUV
Субдискретизация насыщенности : 4: 2: 0
Битовая глубина : 8 бит
Тип развёртки : Прогрессивная
Бит/(Пиксели*Кадры) : 0.250
Размер потока : 17, 4 Гбайт (87%)
Библиотека кодирования : x264 core 160 r3000 33f9e14
Настройки программы : cabac=1/ref=4/deblock=1: -3: -2/analyse=0x3: 0x133/me=umh/subme=10/psy=1/psy_rd=1.00: 0.00/mixed_ref=1/me_range=32/chroma_me=1/trellis=2/8x8dct=1/cqm=0/deadzone=21, 11/fast_pskip=0/chroma_qp_offset=-2/threads=6/lookahead_threads=1/sliced_threads=0/nr=0/decimate=1/interlaced=0/bluray_compat=0/constrained_intra=0/bframes=8/b_pyramid=2/b_adapt=2/b_bias=0/direct=3/weightb=1/open_gop=0/weightp=2/keyint=240/keyint_min=23/scenecut=40/intra_refresh=0/rc_lookahead=60/rc=crf/mbtree=1/crf=18.0/qcomp=0.60/qpmin=0/qpmax=69/qpstep=4/vbv_maxrate=62500/vbv_bufsize=78125/crf_max=0.0/nal_hrd=none/filler=0/ip_ratio=1.40/aq=1: 1.00
Default : Да
Forced : Нет
Аудио #1
Идентификатор : 2
Формат : AC-3
Формат/Информация : Audio Coding 3
Коммерческое название : Dolby Digital
Идентификатор кодека : A_AC3
Продолжительность : 3 ч. 20 м.
Вид битрейта : Постоянный
Битрейт : 448 Кбит/сек
Каналы : 6 каналов
ChannelLayout : L R C LFE Ls Rs
Частота : 48, 0 КГц
Частота кадров : 31, 250 кадров/сек (1536 SPF)
Метод сжатия : С потерями
Размер потока : 641 Мбайт (3%)
Заголовок : DUB
Язык : Russian
ServiceKind/String : Complete Main
Default : Да
Forced : Нет
Аудио #2
Идентификатор : 3
Формат : AC-3
Формат/Информация : Audio Coding 3
Коммерческое название : Dolby Digital
Идентификатор кодека : A_AC3
Продолжительность : 3 ч. 20 м.
Вид битрейта : Постоянный
Битрейт : 448 Кбит/сек
Каналы : 6 каналов
ChannelLayout : L R C LFE Ls Rs
Частота : 48, 0 КГц
Частота кадров : 31, 250 кадров/сек (1536 SPF)
Метод сжатия : С потерями
Размер потока : 641 Мбайт (3%)
Заголовок : MVO Kinomania
Язык : Russian
ServiceKind/String : Complete Main
Default : Нет
Forced : Нет
Аудио #3
Идентификатор : 4
Формат : AC-3
Формат/Информация : Audio Coding 3
Коммерческое название : Dolby Digital
Идентификатор кодека : A_AC3
Продолжительность : 3 ч. 20 м.
Вид битрейта : Постоянный
Битрейт : 448 Кбит/сек
Каналы : 6 каналов
ChannelLayout : L R C LFE Ls Rs
Частота : 48, 0 КГц
Частота кадров : 31, 250 кадров/сек (1536 SPF)
Метод сжатия : С потерями
Размер потока : 641 Мбайт (3%)
Заголовок : DVO Glanz
Язык : Russian
ServiceKind/String : Complete Main
Default : Нет
Forced : Нет
Аудио #4
Идентификатор : 5
Формат : AC-3
Формат/Информация : Audio Coding 3
Коммерческое название : Dolby Digital
Идентификатор кодека : A_AC3
Продолжительность : 3 ч. 20 м.
Вид битрейта : Постоянный
Битрейт : 448 Кбит/сек
Каналы : 6 каналов
ChannelLayout : L R C LFE Ls Rs
Частота : 48, 0 КГц
Частота кадров : 31, 250 кадров/сек (1536 SPF)
Метод сжатия : С потерями
Размер потока : 641 Мбайт (3%)
Язык : English
ServiceKind/String : Complete Main
Default : Нет
Forced : Нет
Текст #1
Идентификатор : 6
Формат : UTF-8
Идентификатор кодека : S_TEXT/UTF8
Идентификатор кодека/Информация : UTF-8 Plain Text
Продолжительность : 3 ч. 16 м.
Битрейт : 1 бит/сек
ElementCount : 27
Размер потока : 1, 56 Кбайт (0%)
Заголовок : Надписи
Язык : Russian
Default : Да
Forced : Нет
Текст #2
Идентификатор : 7
Формат : UTF-8
Идентификатор кодека : S_TEXT/UTF8
Идентификатор кодека/Информация : UTF-8 Plain Text
Продолжительность : 3 ч. 8 м.
Битрейт : 43 бит/сек
ElementCount : 1236
Размер потока : 60, 6 Кбайт (0%)
Язык : Russian
Default : Нет
Forced : Нет
Текст #3
Идентификатор : 8
Формат : UTF-8
Идентификатор кодека : S_TEXT/UTF8
Идентификатор кодека/Информация : UTF-8 Plain Text
Продолжительность : 3 ч. 8 м.
Битрейт : 26 бит/сек
ElementCount : 1278
Размер потока : 37, 1 Кбайт (0%)
Язык : English
Default : Нет
Forced : Нет
Меню
00: 00: 00.000 : : Opening - New York 1933
00: 03: 02.807 : : Vaudeville
00: 04: 20.802 : : Theater Closed
00: 06: 43.945 : : Denham\'s Screening
00: 10: 29.670 : : Defeat Is Always Momentary
00: 12: 33.210 : : A Fateful Meeting
00: 14: 18.399 : : A Woman Born to Play this Role
00: 17: 40.893 : : The Moving Picture Ship
00: 20: 25.849 : : An Early Departure
00: 24: 13.285 : : Jack\'s Quarters
00: 25: 55.637 : : Bruce Settles In
00: 26: 13.363 : : Jimmy\'s Story
00: 28: 00.637 : : Ann Meets Jack Driscoll
00: 30: 29.536 : : A Moustache for Bruce
00: 31: 07.448 : : We\'re Filming on an Island Now?
00: 33: 07.360 : : Filming a Classic Scene
00: 34: 14.510 : : Romance on the Venture
00: 36: 55.880 : : The Last Blank Space on the Map
00: 39: 45.674 : : A Long Sea Voyage
00: 41: 07.506 : : It\'s in the Sub-Text
00: 42: 31.715 : : A Change of Course
00: 43: 45.873 : : Skull Island
00: 52: 20.178 : : Expedition Ashore
00: 55: 49.929 : : The Inhabitants of Skull Island
01: 02: 07.265 : : Ann\'s Abduction
01: 07: 32.798 : : The Sacrifice
01: 12: 39.480 : : Rescue Party
01: 14: 14.658 : : Ceratops Attack
01: 16: 58.947 : : The Killing Ground
01: 20: 23.485 : : Discovering the Footprint
01: 22: 42.165 : : Brontosaurus Stampede
01: 29: 20.521 : : Playing Dead
01: 30: 16.577 : : The Party Is Divided
01: 32: 09.815 : : Ann Disarms Kong
01: 38: 55.346 : : The Swamp Journey
01: 44: 44.111 : : Encountering the Moa Bird
01: 46: 17.954 : : The Log Chasm
01: 50: 02.012 : : The T-Rex Battle
02: 01: 41.252 : : The Insect Pit
02: 09: 08.657 : : Beautiful
02: 13: 18.990 : : Denham\'s Plan
02: 15: 51.476 : : Jack Rescues Ann
02: 21: 36.029 : : Captured
02: 30: 16.507 : : Eighth Wonder of the World
02: 32: 11.705 : : Cry Havoc!
02: 34: 02.149 : : Carl Denham Presents Kong
02: 43: 14.784 : : Kong in New York
02: 47: 50.560 : : Reunited
02: 52: 23.875 : : Under Attack
02: 54: 05.268 : : The Empire State Building
02: 56: 23.989 : : Kong\'s Last Stand
03: 03: 57.484 : : It was Beauty Killed the Beast
03: 10: 36.049 : : End Credits
Рейтинг →
 (голосов: 1, оценка 5/5, голосовать можно 1 раз )

Другие торренты по теме:

  • Кинг Конг / King Kong (2005) BDRip [1080p] [Extended Cut] [hand made 60fps] скачать через торрент бесплатно
  • Кинг Конг / King Kong (2005) BDRip [H.264 / 1080p] [Theatrical Cut] скачать через торрент бесплатно
  • Кинг Конг / King Kong (2005) BDRip [H.264 / 720p] [Extended cut] скачать через торрент бесплатно
  • Кинг Конг / King Kong (2005) BDRip [H.264 / 1080p-LQ] [Extended Cut] скачать через торрент бесплатно
  • Кинг Конг / King Kong (2005) BDRip [H.264 / 720p] [Extended Cut]
  • Кинг Конг / King Kong (2005) BDRip [H.265 / 1080p] [Extended Cut]
  • Кинг Конг / King Kong (2005) HDTVRip [H.264 / 1080p] [Extended Cut] [Open Matte]
  • Кинг Конг: Остров черепа / Kong: Skull Island (2017) WEBRip [H.264 / 1080p] [Трейлер]


    • Комментарии (0):

      Информация

      Информация

        Посетители, находящиеся в группе Гости, не могут оставлять комментарии в данной новости.