Подписывайся на наш канал в Telegram https://t.me/torrentok и получи доступ к торрентам без ограничений!
.
Авторизация | Регистрация
torrent123.club


Город воров / The Town (2010) BDRip Hybrid [H.264 / 720p] [Extended cut] торрент скачать бесплатно

Дата: 7-06-2020, 05:00 | .torrent скачали: 0

Город воров / The Town (2010) BDRip Hybrid [H.264 / 720p] [Extended cut]Производство: США/Warner Bros., Legendary Entertainment, GK Films
Жанр: триллер, драма, криминал
Режиссер: Бен Аффлек

Актеры
Бен Аффлек, Ребекка Холл, Джон Хэмм, Джереми Реннер, Блэйк Лайвли, Слэйн, Оуэн Бурк, Титус Уэлливер, Пит Постлетуэйт, Крис Купер

Описание

В Бостоне каждый год происходит более 300 ограблений банков. И большинство профессионалов, специализирующихся в этой области, живут в округе под названием Чарльстон общей площадью одна квадратная миля. Даг МакРэй — один из них. В отличие от большинства у Дага был шанс на успех, шанс на то, чтобы не идти по криминальному пути своего отца. Однако вместо этого он стал фактическим лидером группы безжалостных грабителей банков, которые гордятся тем, что берут все, что хотят, и выходят сухими из воды.

Возраст: 16+ (зрителям, достигшим 16 лет)
Рейтинг MPAA: R (лицам до 17 лет обязательно присутствие взрослого)
Продолжительность: 02: 30: 33
Качество видео: BDRip Hybrid 720p
Перевод: Дублированный, двухголосый профессиональный, авторский
Субтитры: русские, английские
Видео: AVC/H.264, 1280x534@1282x534 , ~8780 kbps
Аудио 1: AC3, 6 ch, 384 kbps, Русский (DUB +MVO)
Аудио 2: AC3, 6 ch, 640 kbps, Русский (DVO Кубик в Кубе)Censored
Аудио 3: AC3, 6 ch, 640 kbps, Русский (DVO Кубик в Кубе)Uncensored
Аудио 4: AC3, 6 ch, 640 kbps, Русский (AVO А.Гаврилов)
Аудио 5: AC3, 6 ch, 640 kbps, Русский (AVO Ю.Сербин)
Аудио 6: AC3, 6 ch, 640 kbps, Русский (AVO В.Горчаков)
Аудио 7: AC3, 6 ch, 640 kbps, Русский (AVO М.Чадов)
Аудио 8: AC3, 6 ch, 640 kbps, Английский
Аудио 9: AC3, 2 ch, 192 kbps, Английский (Commentary by Ben Affleck)
Общее
Уникальный идентификатор : 178731981589347300080480416780560819145 (0x8676870C9DC4C3BA82099819B336E3C9)
Полное имя : E: FILMSZALIVThe.Town.2010.RUS.Extended.Cut.720p.BluRay.DD5.1.x264-JewelBox.mkv
Формат : Matroska
Версия формата : Version 2
Размер файла : 14, 6 Гбайт
Продолжительность : 2 ч. 30 м.
Общий поток : 13, 9 Мбит/сек
Название фильма : The Town (2010) Extended Cut - BDRip 720p © Juvelir RiPSaW™
Дата кодирования : UTC 2016-10-20 14: 38: 29
Программа кодирования : mkvmerge v7.8.0 (\'River Man\') 32bit built on Apr 3 2015 12: 11: 22
Библиотека кодирования : libebml v1.3.1 + libmatroska v1.4.2
Attachments : The.Town.2010.Extended.Hybrid.REPACK.720p.BluRay.DD5.1.x264-JewelBox.nfo
Видео
Идентификатор : 1
Формат : AVC
Формат/Информация : Advanced Video Codec
Профиль формата : High@L4.1
Настройки формата : CABAC/12 Ref Frames
Параметр CABAC формата : Да
Параметр RefFrames формата : 12 кадров
Идентификатор кодека : V_MPEG4/ISO/AVC
Продолжительность : 2 ч. 30 м.
Битрейт : 8 780 Кбит/сек
Ширина : 1 280 пикселей
Высота : 534 пикселя
Соотношение сторон : 2, 40: 1
Соотношение сторон в оригинале : 2, 40: 1
Режим частоты кадров : Постоянный
Частота кадров : 23, 976 (24000/1001) кадра/сек
Цветовое пространство : YUV
Субдискретизация насыщенности : 4: 2: 0
Битовая глубина : 8 бит
Тип развёртки : Прогрессивная
Бит/(Пиксели*Кадры) : 0.536
Размер потока : 9, 23 Гбайт (63%)
Заголовок : The Town 2010 Extended Hybrid REPACK 720p BluRay DD5.1 x264-JewelBox
Библиотека кодирования : x264 core 148 r2705kMod 3f5ed56
Настройки программы : cabac=1/ref=12/deblock=1: -3: -3/analyse=0x3: 0x133/me=tesa/subme=10/psy=1/fade_compensate=0.00/psy_rd=1.05: 0.00/mixed_ref=1/me_range=24/chroma_me=1/trellis=2/8x8dct=1/cqm=0/deadzone=21, 11/fast_pskip=0/chroma_qp_offset=-2/threads=6/lookahead_threads=1/sliced_threads=0/nr=0/decimate=1/interlaced=0/bluray_compat=0/constrained_intra=0/fgo=0/bframes=11/b_pyramid=2/b_adapt=2/b_bias=0/direct=3/weightb=1/open_gop=0/weightp=2/keyint=240/keyint_min=23/scenecut=40/intra_refresh=0/rc_lookahead=60/rc=crf/mbtree=0/crf=16.7000/qcomp=0.65/qpmin=0/qpmax=69/qpstep=4/vbv_maxrate=62500/vbv_bufsize=78125/crf_max=0.0/nal_hrd=none/filler=0/ip_ratio=1.35/pb_ratio=1.25/aq=3: 0.90/zones=1, 450, crf=25/207618, 216576, crf=25
Язык : English
Default : Да
Forced : Да
Цветовой диапазон : Limited
Основные цвета : BT.709
Характеристики трансфера : BT.709
Коэффициенты матрицы : BT.709
Duration_Source : General_Duration
Аудио #1
Идентификатор : 2
Формат : AC-3
Формат/Информация : Audio Coding 3
Коммерческое название : Dolby Digital
Идентификатор кодека : A_AC3
Продолжительность : 2 ч. 30 м.
Вид битрейта : Постоянный
Битрейт : 384 Кбит/сек
Каналы : 6 каналов
Channel layout : L R C LFE Ls Rs
Частота : 48, 0 КГц
Частота кадров : 31, 250 кадров/сек (1536 SPF)
Метод сжатия : С потерями
Размер потока : 414 Мбайт (3%)
Заголовок : Dub (DVD R5) + вставки DVO
Язык : Russian
Service kind : Complete Main
Default : Да
Forced : Нет
Duration_Source : General_Duration
Аудио #2
Идентификатор : 3
Формат : AC-3
Формат/Информация : Audio Coding 3
Коммерческое название : Dolby Digital
Идентификатор кодека : A_AC3
Продолжительность : 2 ч. 30 м.
Вид битрейта : Постоянный
Битрейт : 640 Кбит/сек
Каналы : 6 каналов
Channel layout : L R C LFE Ls Rs
Частота : 48, 0 КГц
Частота кадров : 31, 250 кадров/сек (1536 SPF)
Метод сжатия : С потерями
Размер потока : 689 Мбайт (5%)
Заголовок : DVO (Кубик в кубе) Censored
Язык : Russian
Service kind : Complete Main
Default : Нет
Forced : Нет
Duration_Source : General_Duration
Аудио #3
Идентификатор : 4
Формат : AC-3
Формат/Информация : Audio Coding 3
Коммерческое название : Dolby Digital
Идентификатор кодека : A_AC3
Продолжительность : 2 ч. 30 м.
Вид битрейта : Постоянный
Битрейт : 640 Кбит/сек
Каналы : 6 каналов
Channel layout : L R C LFE Ls Rs
Частота : 48, 0 КГц
Частота кадров : 31, 250 кадров/сек (1536 SPF)
Метод сжатия : С потерями
Размер потока : 689 Мбайт (5%)
Заголовок : DVO (Кубик в кубе) Uncensored
Язык : Russian
Service kind : Complete Main
Default : Нет
Forced : Нет
Duration_Source : General_Duration
Аудио #4
Идентификатор : 5
Формат : AC-3
Формат/Информация : Audio Coding 3
Коммерческое название : Dolby Digital
Идентификатор кодека : A_AC3
Продолжительность : 2 ч. 30 м.
Вид битрейта : Постоянный
Битрейт : 640 Кбит/сек
Каналы : 6 каналов
Channel layout : L R C LFE Ls Rs
Частота : 48, 0 КГц
Частота кадров : 31, 250 кадров/сек (1536 SPF)
Метод сжатия : С потерями
Размер потока : 689 Мбайт (5%)
Заголовок : AVO (А. Гаврилов)
Язык : Russian
Service kind : Complete Main
Default : Нет
Forced : Нет
Duration_Source : General_Duration
Аудио #5
Идентификатор : 6
Формат : AC-3
Формат/Информация : Audio Coding 3
Коммерческое название : Dolby Digital
Идентификатор кодека : A_AC3
Продолжительность : 2 ч. 30 м.
Вид битрейта : Постоянный
Битрейт : 640 Кбит/сек
Каналы : 6 каналов
Channel layout : L R C LFE Ls Rs
Частота : 48, 0 КГц
Частота кадров : 31, 250 кадров/сек (1536 SPF)
Метод сжатия : С потерями
Размер потока : 689 Мбайт (5%)
Заголовок : AVO (Ю. Сербин)
Язык : Russian
Service kind : Complete Main
Default : Нет
Forced : Нет
Duration_Source : General_Duration
Аудио #6
Идентификатор : 7
Формат : AC-3
Формат/Информация : Audio Coding 3
Коммерческое название : Dolby Digital
Идентификатор кодека : A_AC3
Продолжительность : 2 ч. 30 м.
Вид битрейта : Постоянный
Битрейт : 448 Кбит/сек
Каналы : 6 каналов
Channel layout : L R C LFE Ls Rs
Частота : 48, 0 КГц
Частота кадров : 31, 250 кадров/сек (1536 SPF)
Метод сжатия : С потерями
Размер потока : 482 Мбайт (3%)
Заголовок : AVO (В. Горчаков)
Язык : Russian
Service kind : Complete Main
Default : Нет
Forced : Нет
Duration_Source : General_Duration
Аудио #7
Идентификатор : 8
Формат : AC-3
Формат/Информация : Audio Coding 3
Коммерческое название : Dolby Digital
Идентификатор кодека : A_AC3
Продолжительность : 2 ч. 30 м.
Вид битрейта : Постоянный
Битрейт : 640 Кбит/сек
Каналы : 6 каналов
Channel layout : L R C LFE Ls Rs
Частота : 48, 0 КГц
Частота кадров : 31, 250 кадров/сек (1536 SPF)
Метод сжатия : С потерями
Размер потока : 689 Мбайт (5%)
Заголовок : VO (М. Чадов)
Язык : Russian
Service kind : Complete Main
Default : Нет
Forced : Нет
Duration_Source : General_Duration
Аудио #8
Идентификатор : 9
Формат : AC-3
Формат/Информация : Audio Coding 3
Коммерческое название : Dolby Digital
Идентификатор кодека : A_AC3
Продолжительность : 2 ч. 30 м.
Вид битрейта : Постоянный
Битрейт : 640 Кбит/сек
Каналы : 6 каналов
Channel layout : L R C LFE Ls Rs
Частота : 48, 0 КГц
Частота кадров : 31, 250 кадров/сек (1536 SPF)
Метод сжатия : С потерями
Размер потока : 689 Мбайт (5%)
Заголовок : Original
Язык : English
Service kind : Complete Main
Default : Нет
Forced : Нет
Duration_Source : General_Duration
Аудио #9
Идентификатор : 10
Формат : AC-3
Формат/Информация : Audio Coding 3
Коммерческое название : Dolby Digital
Идентификатор кодека : A_AC3
Продолжительность : 2 ч. 30 м.
Вид битрейта : Постоянный
Битрейт : 192 Кбит/сек
Каналы : 2 канала
Channel layout : L R
Частота : 48, 0 КГц
Частота кадров : 31, 250 кадров/сек (1536 SPF)
Метод сжатия : С потерями
Размер потока : 207 Мбайт (1%)
Заголовок : Commentary by Ben Affleck
Язык : English
Service kind : Complete Main
Default : Нет
Forced : Нет
Duration_Source : General_Duration
Текст #1
Идентификатор : 11
Формат : UTF-8
Идентификатор кодека : S_TEXT/UTF8
Идентификатор кодека/Информация : UTF-8 Plain Text
Заголовок : Forced
Язык : Russian
Default : Да
Forced : Нет
Текст #2
Идентификатор : 12
Формат : UTF-8
Идентификатор кодека : S_TEXT/UTF8
Идентификатор кодека/Информация : UTF-8 Plain Text
Заголовок : Voronine
Язык : Russian
Default : Нет
Forced : Нет
Текст #3
Идентификатор : 13
Формат : UTF-8
Идентификатор кодека : S_TEXT/UTF8
Идентификатор кодека/Информация : UTF-8 Plain Text
Заголовок : Voronine SDH
Язык : Russian
Default : Нет
Forced : Нет
Текст #4
Идентификатор : 14
Формат : UTF-8
Идентификатор кодека : S_TEXT/UTF8
Идентификатор кодека/Информация : UTF-8 Plain Text
Заголовок : Goblin
Язык : Russian
Default : Нет
Forced : Нет
Текст #5
Идентификатор : 15
Формат : UTF-8
Идентификатор кодека : S_TEXT/UTF8
Идентификатор кодека/Информация : UTF-8 Plain Text
Язык : English
Default : Нет
Forced : Нет
Текст #6
Идентификатор : 16
Формат : UTF-8
Идентификатор кодека : S_TEXT/UTF8
Идентификатор кодека/Информация : UTF-8 Plain Text
Заголовок : SDH
Язык : English
Default : Нет
Forced : Нет
Меню
00: 00: 00.000 : en: Credits
00: 10: 53.111 : en: New York, New York
00: 23: 54.433 : en: Sights to See
00: 44: 12.066 : en: Miss Turnstiles
00: 54: 36.690 : en: In the Flesh. Taxi!
01: 06: 36.367 : en: Remarkable Specimen
01: 14: 39.266 : en: Prehistoric Man
01: 27: 29.161 : en: All Broken Up
01: 36: 55.393 : en: Museum Mishmash
01: 53: 14.246 : en: Come Up to My Place
02: 03: 03.793 : en: At Hildy\'s; Lucy Schmeeler
02: 14: 10.751 : en: Symphonic Hall
02: 23: 16.379 : en: Small-Town Reunion
Рейтинг →
 (голосов: 1, оценка 5/5, голосовать можно 1 раз )

Другие торренты по теме:

  • Город воров / The Town (2010) AC3 5.1 AVO Д. Пучков (Гоблин) [hand made]
  • Город воров / The Town (2010) BDRemux [H.264 / 1080p] [Расширенная версия]
  • Город воров / The Town (2010) BDRip [H.264 / 1080p] [Расширенная версия]
  • Город воров / The Town (2010) BDRip [H.264 / 1080p] [Расширенная версия]
  • Город воров / The Town (2010) HDRip [H.264](Extended Cut) [MP4|1024x428]
  • Город воров / The Town (2010) BDRip [H.265 / 1080p-LQ] [Extended cut]
  • Город воров / The Town (2010) UHD BDRemux [H.265 / 2160p] [4K, HDR, 10-bit] [Театральная версия]
  • Город воров / The Town (2010) UHD Blu-Ray [H.265 / 2160p] [4K, HDR, 10-bit] [EUR] [Театральная версия]


    • Комментарии (0):

      Информация

      Информация

        Посетители, находящиеся в группе Гости, не могут оставлять комментарии в данной новости.