Подписывайся на наш канал в Telegram https://t.me/torrentok и получи доступ к торрентам без ограничений!
.
Авторизация | Регистрация
torrent123.club


Яга. Кошмар тёмного леса (2020) BDRip [H.264 / 1080p-LQ] [hand made 16:9] торрент скачать бесплатно

Дата: 14-06-2020, 05:00 | .torrent скачали: 0

Яга. Кошмар тёмного леса (2020) BDRip [H.264 / 1080p-LQ] [hand made 16:9]Производство: Россия/Нон-стоп Продакшн, QS Films
Жанр: Ужасы
Режиссер: Святослав Подгаевский

Актеры
Олег Чугунов, Глаша Голубева, Артём Жигулин, Игорь Хрипунов, Светлана Устинова, Алексей Розин, Марьяна Спивак, Марта Тимофеева, Даниил Филиппов, Женя Евстигнеева

Описание

В центре сюжета — молодая семья, которая переехала в новую квартиру на окраине города. Нанятая ими для новорожденной дочери няня быстро вошла в доверие. Однако старший мальчик, Егор, рассказывает о пугающем поведении женщины, но родители ему не верят. И вот однажды Егор, вернувшись домой, не находит никаких следов ни няни, ни маленькой сестры, а родители пребывают в странном трансе и даже не помнят, что у них была дочь. Тогда Егор вместе с друзьями отправляется на поиски, в ходе которых выяснится, что няня — древний славянский демон.

Возраст: 16+ (зрителям, достигшим 16 лет)
Дата мировой премьеры: 1 марта 2020
Дата российской премьеры: 27 февраля 2020
Цифровой релиз: 1 апреля 2020
Релиз от: SergeyAms
Продолжительность: 01: 36: 45
Качество видео: BDRip
Перевод: Не требуется
Субтитры: отсутствуют
Видео: AVC/H.264, 1920x1080, ~5 Mbps
Аудио: AC3, 6 ch, 640 Kbps - Русский
x264 info: frame I: 896 Avg QP: 18.11 size: 121657
x264 info: frame P: 29091 Avg QP: 19.43 size: 53602
x264 info: frame B: 109347 Avg QP: 20.30 size: 17885
Unique ID : 227692227684509091376338010838858061296 (0xAB4BED8D7CE3AD27B1192868E71DD5F0)
Complete name : D: TempNNMЯга.2020.1080p.FS.mkv
Format : Matroska
Format version : Version 4/Version 2
File size : 3.81 GiB
Duration : 1h 36mn
Overall bit rate : 5 637 Kbps
Writing library : Lavf57.71.100
Video
ID : 1
Format : AVC
Format/Info : Advanced Video Codec
Format profile : High@L4.1
Format settings, CABAC : Yes
Format settings, ReFrames : 4 frames
Codec ID : V_MPEG4/ISO/AVC
Duration : 1h 36mn
Bit rate : 5 000 Kbps
Width : 1 920 pixels
Height : 1 080 pixels
Display aspect ratio : 16: 9
Frame rate mode : Constant
Frame rate : 24.000 fps
Color space : YUV
Chroma subsampling : 4: 2: 0
Bit depth : 8 bits
Scan type : Progressive
Bits/(Pixel*Frame) : 0.100
Stream size : 3.30 GiB (87%)
Writing library : x264 core 157 r2935 545de2f
Encoding settings : cabac=1/ref=4/deblock=1: -2: -2/analyse=0x3: 0x113/me=umh/subme=9/psy=1/psy_rd=1.05: 0.10/mixed_ref=1/me_range=24/chroma_me=1/trellis=2/8x8dct=1/cqm=0/deadzone=21, 11/fast_pskip=0/chroma_qp_offset=-3/threads=13/lookahead_threads=1/sliced_threads=0/nr=0/decimate=0/interlaced=0/bluray_compat=0/constrained_intra=0/bframes=6/b_pyramid=2/b_adapt=2/b_bias=0/direct=1/weightb=1/open_gop=0/weightp=2/keyint=240/keyint_min=24/scenecut=40/intra_refresh=0/rc=2pass/mbtree=0/bitrate=5000/ratetol=1.0/qcomp=0.70/qpmin=3/qpmax=69/qpstep=4/cplxblur=20.0/qblur=0.5/ip_ratio=1.40/pb_ratio=1.30/aq=2: 1.00
Default : Yes
Forced : No
Audio
ID : 2
Format : AC-3
Format/Info : Audio Coding 3
Mode extension : CM (complete main)
Format settings, Endianness : Big
Codec ID : A_AC3
Duration : 1h 36mn
Bit rate mode : Constant
Bit rate : 640 Kbps
Channel(s) : 6 channels
Channel positions : Front: L C R, Side: L R, LFE
Sampling rate : 48.0 KHz
Bit depth : 16 bits
Compression mode : Lossy
Stream size : 443 MiB (11%)
Default : Yes
Forced : No

Скриншоты для ознакомления



Все одноименные релизы в Клубе
Время раздачи: 24/7 (до появления первых 3-5 скачавших)
Рейтинг →
 (голосов: 1, оценка 3/5, голосовать можно 1 раз )

Другие торренты по теме:

  • Яга. Кошмар тёмного леса (2020) CamRip [AD]
  • Nick Skachkov - Baba Yaga: Terror of the Dark Forest / Яга. Кошмар тёмного леса (Original Motion Picture Soundtrack) (2020) [MP3|320 кб / с]<Soundtrack>
  • Nick Skachkov - Baba Yaga: Terror of the Dark Forest / Яга. Кошмар тёмного леса (Original Motion Picture Soundtrack) (2020) [FLAC|Lossless|WEB-DL|tracks]<Soundtrack>
  • Яга. Кошмар тёмного леса (2020) WEB-DL [H.264 / 1080p-LQ]
  • Яга. Кошмар тёмного леса (2020) WEB-DLRip
  • Яга. Кошмар тёмного леса (2020) WEB-DL [1080p] ATV


    • Комментарии (0):

      Информация

      Информация

        Посетители, находящиеся в группе Гости, не могут оставлять комментарии в данной новости.