Подписывайся на наш канал в Telegram https://t.me/torrentok и получи доступ к торрентам без ограничений!
.
Авторизация | Регистрация
torrent123.club


The Elder Scrolls V Skyrim - Special Edition (пейзажи) (2020) [H.264 / 1080p] торрент скачать бесплатно

Дата: 15-06-2020, 05:00 | .torrent скачали: 0

The Elder Scrolls V Skyrim - Special Edition (пейзажи) (2020) [H.264 / 1080p]
Описание

Это видео с живописными видами пейзажей из видео игры The Elder Scrolls V Skyrim - Special Edition. В этом видео демонстрируются некоторые места в игре, которые по мнению автора являются самыми впечатляющими. Конечно это только небольшая часть The Elder Scrolls V Skyrim природу которого можно много снимать. Звуковой ряд представляет собой официальные саундтреки из The Elder Scrolls V Skyrim, заменяя звук из самой игры.
Возраст: 0+ (для любой зрительской аудитории)
Рейтинг MPAA: G (нет возрастных ограничений)
Продолжительность: 00: 50: 28
Качество видео: HD
Перевод: Не требуется (нет диалогов и озвученных комментариев)
Видео: AVC/H.264, 1920x1080, ~10000 Kbps, 30 FPS
Аудио: MP3, 2 ch, 320
General
Unique ID : 200321744351117939654354009005921180127 (0x96B490895930BFAB997B2DFE989099DF)
Complete name : The Elder Scrolls V Skyrim - Special Edition (пейзажи).mkv
Format : Matroska
Format version : Version 4
File size : 3.56 GiB
Duration : 50 min 28 s
Overall bit rate : 10.1 Mb/s
Encoded date : UTC 2020-06-10 16: 29: 06
Writing application : mkvmerge v8.3.0 (\'Over the Horizon\') 64bit
Writing library : libebml v1.3.1 + libmatroska v1.4.2
Video
ID : 1
Format : AVC
Format/Info : Advanced Video Codec
Format profile : High@L4.1
Format settings : CABAC/4 Ref Frames
Format settings, CABAC : Yes
Format settings, Reference frames : 4 frames
Codec ID : V_MPEG4/ISO/AVC
Duration : 50 min 28 s
Bit rate : 10 000 kb/s
Width : 1 920 pixels
Height : 1 080 pixels
Display aspect ratio : 16: 9
Frame rate mode : Constant
Frame rate : 30.000 FPS
Color space : YUV
Chroma subsampling : 4: 2: 0
Bit depth : 8 bits
Scan type : Progressive
Bits/(Pixel*Frame) : 0.161
Stream size : 3.44 GiB (97%)
Writing library : x264 core 160 r3000
Encoding settings : cabac=1/ref=4/deblock=1: 0: 0/analyse=0x3: 0x133/me=umh/subme=9/psy=1/psy_rd=1.00: 0.00/mixed_ref=1/me_range=16/chroma_me=1/trellis=2/8x8dct=1/cqm=0/deadzone=21, 11/fast_pskip=1/chroma_qp_offset=-2/threads=24/lookahead_threads=2/sliced_threads=0/nr=0/decimate=0/interlaced=0/bluray_compat=0/constrained_intra=0/bframes=3/b_pyramid=2/b_adapt=2/b_bias=1/direct=2/weightb=1/open_gop=0/weightp=1/keyint=300/keyint_min=30/scenecut=40/intra_refresh=0/rc_lookahead=40/rc=abr/mbtree=1/bitrate=10000/ratetol=1.0/qcomp=0.70/qpmin=10/qpmax=69/qpstep=4/vbv_maxrate=10500/vbv_bufsize=24000/nal_hrd=none/filler=0/ip_ratio=1.40/aq=3: 1.00
Default : Yes
Forced : Yes
Audio
ID : 2
Format : MPEG Audio
Format version : Version 1
Format profile : Layer 3
Codec ID : A_MPEG/L3
Codec ID/Hint : MP3
Duration : 50 min 28 s
Bit rate mode : Constant
Bit rate : 320 kb/s
Channel(s) : 2 channels
Sampling rate : 48.0 kHz
Frame rate : 41.667 FPS (1152 SPF)
Compression mode : Lossy
Stream size : 116 MiB (3%)
Writing library : LAMELAME_MAJOR_VERSI
Default : Yes
Forced : Yes

Скриншоты для ознакомления



Время раздачи: 24/7
Рейтинг →
 (голосов: 1, оценка 3/5, голосовать можно 1 раз )

Другие торренты по теме:

  • The Elder Scrolls IV: Oblivion Game of the Year Edition / The Elder Scrolls 4: Oblivion (2007) [Ru] (1.2.0416) License [Золотое издание]
  • The Elder Scrolls V: Skyrim SLMP-JG (2011) [Ru] (1.9.32.0.8 / 2.0.6a) Repack mitradis [Legendary Edition]
  • The Elder Scrolls V: Skyrim Extended Edition (2015) [Ru] (1.9.32.0.8 / dlc / mod) Repack Ra3or [Final Stable] скачать через торрент бесплатно
  • The Elder Scrolls V Skyrim (2011) [Ru / En] (1.9.32.0.8 / dlc) SteamRip LetsPlay [Legendary Edition] скачать через торрент бесплатно
  • The Elder Scrolls Online (2014) [En] (2.0.6) License скачать через торрент бесплатно
  • The Elder Scrolls V: Skyrim - Legendary Edition (2011) Механики скачать через торрент бесплатно
  • The Elder Scrolls V: Skyrim Extended Edition v.1.9.32.0.8 (2014) [Ru] [OS X WineSkin] скачать через торрент бесплатно
  • The Elder Scrolls V: Skyrim Association 2015 (2011-2015) [Ru] (1.9.32.0.8 / 1.5.1) Repack / Mod Rubicon скачать через торрент бесплатно


    • Комментарии (0):

      Информация

      Информация

        Посетители, находящиеся в группе Гости, не могут оставлять комментарии в данной новости.