Подписывайся на наш канал в Telegram https://t.me/torrentok и получи доступ к торрентам без ограничений!
.
Авторизация | Регистрация
torrent123.club
Торрент трекер | Скачать торрент | Скачать Через Торрент | Скачать торрент бесплатно | Скачать торрент без регистрации Другое торрент скачать АХСиМСЗ - Да здравствует американский шовинизм! (George Floyd Protest in USA) (2020) WEBRip [H.264 / 1080p] <Radical political hardcore> торрент скачать бесплатно


    АХСиМСЗ - Да здравствует американский шовинизм! (George Floyd Protest in USA) (2020) WEBRip [H.264 / 1080p] <Radical political hardcore> торрент скачать бесплатно

    Дата: 16-06-2020, 05:00 | .torrent скачали: 0

    АХСиМСЗ - Да здравствует американский шовинизм! (George Floyd Protest in USA) (2020) WEBRip [H.264 / 1080p] &ltRadical political hardcore>Производство: (с) 2020 Zymotic Productions Ultra-Video
    Жанр: Radical political hardcore

    Описание

    CDA: 2007.5 - Правда Силы
    George Floyd Protest in USA
    Возраст: этот продукт не был классифицирован
    Релиз от: Vayper (Zymotic Productions Ultra)
    Продолжительность: 00: 04: 03
    Качество видео: WEBRip
    Видео: AVC/H.264, 1920x1080, ~6000 kbps
    Аудио: AAC, 2 ch, 192 Kbps
    General
    Complete name : E: VIDEO MUSICMVID FMV(by Vayper)АХСиМСЗ - Да здравствует американский шовинизм! (Vayper) 2020.mp4
    Format : MPEG-4
    Format profile : Base Media/Version 2
    Codec ID : mp42 (mp42/isom)
    File size : 179 MiB
    Duration : 4 min 3 s
    Overall bit rate mode : Variable
    Overall bit rate : 6 146 kb/s
    Encoded date : UTC 2020-06-13 20: 02: 20
    Tagged date : UTC 2020-06-13 20: 02: 20
    Video
    ID : 2
    Format : AVC
    Format/Info : Advanced Video Codec
    Format profile : Baseline@L4
    Format settings : 3 Ref Frames
    Format settings, CABAC : No
    Format settings, Reference frames : 3 frames
    Format settings, GOP : M=1, N=15
    Codec ID : avc1
    Codec ID/Info : Advanced Video Coding
    Duration : 4 min 3 s
    Bit rate mode : Variable
    Bit rate : 6 000 kb/s
    Width : 1 920 pixels
    Height : 1 080 pixels
    Display aspect ratio : 16: 9
    Frame rate mode : Constant
    Frame rate : 29.970 (30000/1001) FPS
    Standard : NTSC
    Color space : YUV
    Chroma subsampling : 4: 2: 0
    Bit depth : 8 bits
    Scan type : Progressive
    Bits/(Pixel*Frame) : 0.097
    Stream size : 173 MiB (97%)
    Language : English
    Encoded date : UTC 2020-06-13 20: 02: 20
    Tagged date : UTC 2020-06-13 20: 02: 20
    Color range : Limited
    Codec configuration box : avcC
    Audio
    ID : 1
    Format : AAC LC
    Format/Info : Advanced Audio Codec Low Complexity
    Codec ID : mp4a-40-2
    Duration : 4 min 3 s
    Bit rate mode : Constant
    Bit rate : 192 kb/s
    Channel(s) : 2 channels
    Channel layout : L R
    Sampling rate : 48.0 kHz
    Frame rate : 46.875 FPS (1024 SPF)
    Compression mode : Lossy
    Stream size : 5.58 MiB (3%)
    Language : English
    Encoded date : UTC 2020-06-13 20: 02: 20
    Tagged date : UTC 2020-06-13 20: 02: 20

    Скриншоты для ознакомления



    Все одноименные релизы в Клубе
    Время раздачи: с 08: 00 до 24: 00 (до появления первых 3-5 скачавших)
    Рейтинг →
     (голосов: 1, оценка 4/5, голосовать можно 1 раз )

    Другие торренты по теме:

  • Алексей Глухов и АХСиМСЗ - Концертные выступления 3Х (2011-2018) CamRip


    • Комментарии (0):

      Информация

      Информация

        Посетители, находящиеся в группе Гости, не могут оставлять комментарии в данной новости.