Подписывайся на наш канал в Telegram https://t.me/torrentok и получи доступ к торрентам без ограничений!
.
Авторизация | Регистрация
torrent123.club
Торрент трекер | Скачать торрент | Скачать Через Торрент | Скачать торрент бесплатно | Скачать торрент без регистрации Другое торрент скачать Демократизатор - Бухай за Рулем (М.Ефремов) (2020) WEBRip [H.264 / 720p] <Hardcore, Crust-Punk> торрент скачать бесплатно


    Демократизатор - Бухай за Рулем (М.Ефремов) (2020) WEBRip [H.264 / 720p] <Hardcore, Crust-Punk> торрент скачать бесплатно

    Дата: 16-06-2020, 05:00 | .torrent скачали: 0

    Демократизатор - Бухай за Рулем (М.Ефремов) (2020) WEBRip [H.264 / 720p] &ltHardcore, Crust-Punk>Производство: (с) 2020 Zymotic Productions Ultra-Video
    Жанр: Hardcore, Crust-Punk

    Актеры
    М.Ефремов

    Описание

    Песня нашего (Ансамбль Христа Спасителя) побочного, совместно с Коррозией Металла проекта DEMOKRATIZATOR, в этот раз посвящённая величайшему гонщику и актёру Михаилу Ефремову.
    Релиз от: Vayper (Zymotic Productions Ultra)
    Продолжительность: 00: 02: 25
    Качество видео: WEBRip
    Видео: AVC/H.264, 1280x720, ~2400 kbps
    Аудио: AAC, 2 ch, 192 Kbps
    General
    Complete name : E: VIDEO MUSICMVID FMV(by Vayper)Демократизатор - Бухай за Рулем (М.Ефремов) Vayper 2020.mp4
    Format : MPEG-4
    Format profile : Base Media/Version 2
    Codec ID : mp42 (mp42/isom)
    File size : 45.5 MiB
    Duration : 2 min 25 s
    Overall bit rate mode : Variable
    Overall bit rate : 2 622 kb/s
    Encoded date : UTC 2020-06-13 12: 51: 11
    Tagged date : UTC 2020-06-13 12: 51: 11
    Video
    ID : 2
    Format : AVC
    Format/Info : Advanced Video Codec
    Format profile : Main@L3.2
    Format settings : CABAC/3 Ref Frames
    Format settings, CABAC : Yes
    Format settings, Reference frames : 3 frames
    Codec ID : avc1
    Codec ID/Info : Advanced Video Coding
    Duration : 2 min 25 s
    Bit rate mode : Variable
    Bit rate : 2 425 kb/s
    Maximum bit rate : 3 000 kb/s
    Width : 1 280 pixels
    Height : 720 pixels
    Display aspect ratio : 16: 9
    Frame rate mode : Constant
    Frame rate : 29.970 (30000/1001) FPS
    Standard : NTSC
    Color space : YUV
    Chroma subsampling : 4: 2: 0
    Bit depth : 8 bits
    Scan type : Progressive
    Bits/(Pixel*Frame) : 0.088
    Stream size : 42.1 MiB (92%)
    Language : English
    Encoded date : UTC 2020-06-13 12: 51: 11
    Tagged date : UTC 2020-06-13 12: 51: 11
    Color range : Limited
    Codec configuration box : avcC
    Audio
    ID : 1
    Format : AAC LC
    Format/Info : Advanced Audio Codec Low Complexity
    Codec ID : mp4a-40-2
    Duration : 2 min 25 s
    Bit rate mode : Constant
    Bit rate : 192 kb/s
    Channel(s) : 2 channels
    Channel layout : L R
    Sampling rate : 44.1 kHz
    Frame rate : 43.066 FPS (1024 SPF)
    Compression mode : Lossy
    Stream size : 3.33 MiB (7%)
    Language : English
    Encoded date : UTC 2020-06-13 12: 51: 11
    Tagged date : UTC 2020-06-13 12: 51: 11

    Скриншоты для ознакомления



    Все одноименные релизы в Клубе
    Время раздачи: с 08: 00 до 24: 00 (до появления первых 3-5 скачавших)
    Рейтинг →
     (голосов: 1, оценка 5/5, голосовать можно 1 раз )

    Другие торренты по теме:

  • Демократизатор (совместный проект участников АХС и МСЗ и Коррозии Металла) - 4 Альбома (2016-2018) [MP3|320 Kbps] <lo-fi raw punk hardcore>


    • Комментарии (0):

      Информация

      Информация

        Посетители, находящиеся в группе Гости, не могут оставлять комментарии в данной новости.