Подписывайся на наш канал в Telegram https://t.me/torrentok и получи доступ к торрентам без ограничений!
.
Авторизация | Регистрация
torrent123.club


ВИА «Месхи» Свободные птицы (8K 4320p) MASTER торрент скачать бесплатно

Дата: 16-06-2020, 05:00 | .torrent скачали: 0

ВИА «Месхи» Свободные птицы (8K 4320p) MASTERПроизводство: Россия, кинокомпания CINESTYLE
Жанр: Rock, pop
Режиссер: Андрей Гераськин

Актеры
ВИА Месхи

Описание

Первый клип группы в формате 8К
Возраст: 16+ (зрителям, достигшим 16 лет)
Рейтинг MPAA: PG-13 (детям до 13 лет просмотр нежелателен)
Дата мировой премьеры: 1 июня 2020 г.
Дата российской премьеры: 1 июня 2020 г.
Продолжительность: 03: 43
Качество видео: Master
Перевод: Не требуется (нет диалогов и озвученных комментариев)
Видео: AVC/H.264, 8192x3500, ~121 Мбит/сек
Аудио: LPCM, 2 ch Binaural, 3072 kbps
Общее
Уникальный идентификатор : 141140923217315440511565052680598487547 (0x6A2EC0C73F3ED4E8AF33E1FF991081FB)
Полное имя : H: 8K Свободные птицы.mkv
Формат : Matroska
Версия формата : Version 4
Размер файла : 3, 14 Гбайт
Продолжительность : 3 м. 42 с.
Общий поток : 121 Мбит/сек
Дата кодирования : UTC 2020-06-03 22: 06: 33
Программа кодирования : mkvmerge v43.0.0 (\'The Quartermaster\') 64-bit
Библиотека кодирования : libebml v1.3.10 + libmatroska v1.5.2
Видео
Идентификатор : 1
Формат : AVC
Формат/Информация : Advanced Video Codec
Профиль формата : Main@L6
Настройки формата : CABAC/4 Ref Frames
Параметр CABAC формата : Да
Параметр RefFrames формата : 4 кадра
Идентификатор кодека : V_MPEG4/ISO/AVC
Продолжительность : 3 м. 42 с.
Битрейт : 118 Мбит/сек
Ширина : 8 192 пикселя
Высота : 3 500 пикселей
Соотношение сторон : 2, 35: 1
Режим частоты кадров : Постоянный
Частота кадров : 25, 000 кадров/сек
Цветовое пространство : YUV
Субдискретизация насыщенности : 4: 2: 0
Битовая глубина : 8 бит
Тип развёртки : Прогрессивная
Бит/(Пиксели*Кадры) : 0.165
Размер потока : 3, 06 Гбайт (97%)
Язык : Russian
Default : Да
Forced : Нет
Цветовой диапазон : Limited
Основные цвета : BT.709
Характеристики трансфера : BT.709
Коэффициенты матрицы : BT.709
Аудио
Идентификатор : 2
Формат : PCM
Настройки формата : Little/Signed
Идентификатор кодека : A_PCM/INT/LIT
Продолжительность : 3 м. 42 с.
Вид битрейта : Постоянный
Битрейт : 3 072 Кбит/сек
Каналы : 2 канала
Частота : 48, 0 КГц
Частота кадров : 32, 000 кадра/сек (1500 SPF)
Битовая глубина : 32 бит
Размер потока : 81, 5 Мбайт (3%)
Язык : Russian
Default : Да
Forced : Нет

Скриншоты для ознакомления

=


Время раздачи: с 12 до 02 (до появления первых 3-5 скачавших)
Рейтинг →
 (голосов: 1, оценка 5/5, голосовать можно 1 раз )

Другие торренты по теме:

  • Лилия Месхи и группа MESA - Вернуть любовь (2017) UHDStRip [H.265 / 2160 10-bit] [4K]
  • ВИА «Месхи» с симфоническим оркестром (2020) UHD BDRemux [H.264 / 2160p]


    • Комментарии (0):

      Информация

      Информация

        Посетители, находящиеся в группе Гости, не могут оставлять комментарии в данной новости.