Подписывайся на наш канал в Telegram https://t.me/torrentok и получи доступ к торрентам без ограничений!
.
Авторизация | Регистрация
torrent123.club


Кинг Конг / King Kong (2005) HybridRip [H.264] [Open Matte] [Extended Cut] торрент скачать бесплатно

Дата: 23-06-2020, 05:00 | .torrent скачали: 0

Кинг Конг / King Kong (2005) HybridRip [H.264] [Open Matte] [Extended Cut]Производство: Германия, США, Новая Зеландия/Universal Pictures, WingNut Films, Big Primate Pictures
Жанр: Боевик, Драма, Мелодрама, Приключения, Фэнтези
Режиссер: Питер Джексон

Актеры
Наоми Уоттс, Эдриан Броуди, Джек Блэк, Томас Кречман, Энди Серкис, Колин Хэнкс, Джейми Белл, Кайл Чандлер, Эван Парк, Лобо Чан

Описание

В 1930-м году съемочная группа под предводительством режиссера-неудачника Карла Дэнхэма отправляется на загадочный Остров Черепа неподалеку от Суматры, чтобы изучать легенды о гигантской горилле по кличке Конг. По прибытии не место они обнаруживают, что Кинг Конг и правда существует.
Горилла живет в самой чаще непроходимых джунглей, где помимо него, спрятанные от всего мира, обитают многие создания из доисторических времен. Исследователи оказываются между двух огней - с одной стороны Кинг Конг, а с другой - его враги динозавры...

Возраст: 12+ (зрителям, достигшим 12 лет)
Рейтинг MPAA: PG-13 (детям до 13 лет просмотр нежелателен)
Продолжительность: 03: 20: 08
Качество видео: HybridRip
Перевод: Дублированный
Субтитры: русские, английские
Видео: AVC/H.264, 1024x576, 23.976 fps, ~3127 Kbps
Аудио 1: AC3, 6 ch, 448 Kbps - Русский (DUB)
Аудио 2: AC3, 6 ch, 448 Kbps - Английский
General
Unique ID : 205253107907302875032186865415589918832 (0x9A6A4F880D077AFFBA348C987C6AF870)
Complete name : D: King Kong (2005) Open Matte.mkv
Format : Matroska
Format version : Version 4
File size : 5.63 GiB
Duration : 3 h 20 min
Overall bit rate : 4 025 kb/s
Movie name : Кинг Конг/King Kong (2005) (Расширенная) (Open Matte) - #LORDKILL#
Encoded date : UTC 2020-06-20 17: 58: 06
Writing application : mkvmerge v8.3.0 (\'Over the Horizon\') 32bit
Writing library : libebml v1.3.1 + libmatroska v1.4.2
Video
ID : 1
Format : AVC
Format/Info : Advanced Video Codec
Format profile : High@L4.1
Format settings : CABAC/11 Ref Frames
Format settings, CABAC : Yes
Format settings, Reference : 11 frames
Codec ID : V_MPEG4/ISO/AVC
Duration : 3 h 20 min
Bit rate : 3 127 kb/s
Width : 1 024 pixels
Height : 576 pixels
Display aspect ratio : 16: 9
Frame rate mode : Constant
Frame rate : 23.976 (24000/1001) FPS
Color space : YUV
Chroma subsampling : 4: 2: 0
Bit depth : 8 bits
Scan type : Progressive
Bits/(Pixel*Frame) : 0.221
Stream size : 4.37 GiB (78%)
Writing library : x264 core 159 r2991 1771b55
Encoding settings : cabac=1/ref=11/deblock=1: -2: -2/analyse=0x3: 0x133/me=umh/subme=10/psy=1/psy_rd=1.00: 0.20/mixed_ref=1/me_range=32/chroma_me=1/trellis=2/8x8dct=1/cqm=0/deadzone=21, 11/fast_pskip=0/chroma_qp_offset=-3/threads=12/lookahead_threads=2/sliced_threads=0/nr=0/decimate=1/interlaced=0/bluray_compat=0/constrained_intra=0/bframes=8/b_pyramid=2/b_adapt=2/b_bias=0/direct=1/weightb=1/open_gop=0/weightp=2/keyint=240/keyint_min=23/scenecut=40/intra_refresh=0/rc=crf/mbtree=0/crf=19.0/qcomp=0.60/qpmin=0/qpmax=69/qpstep=4/ip_ratio=1.40/pb_ratio=1.30/aq=1: 1.00
Default : Yes
Forced : No
Audio #1
ID : 2
Format : AC-3
Format/Info : Audio Coding 3
Commercial name : Dolby Digital
Codec ID : A_AC3
Duration : 3 h 20 min
Bit rate mode : Constant
Bit rate : 448 kb/s
Channel(s) : 6 channels
Channel layout : L R C LFE Ls Rs
Sampling rate : 48.0 kHz
Frame rate : 31.250 FPS (1536 SPF)
Bit depth : 16 bits
Compression mode : Lossy
Stream size : 641 MiB (11%)
Title : DUB
Language : Russian
Service kind : Complete Main
Default : Yes
Forced : No
Audio #2
ID : 3
Format : AC-3
Format/Info : Audio Coding 3
Commercial name : Dolby Digital
Codec ID : A_AC3
Duration : 3 h 20 min
Bit rate mode : Constant
Bit rate : 448 kb/s
Channel(s) : 6 channels
Channel layout : L R C LFE Ls Rs
Sampling rate : 48.0 kHz
Frame rate : 31.250 FPS (1536 SPF)
Bit depth : 16 bits
Compression mode : Lossy
Stream size : 641 MiB (11%)
Language : English
Service kind : Complete Main
Default : No
Forced : No
Text #1
ID : 4
Format : UTF-8
Codec ID : S_TEXT/UTF8
Codec ID/Info : UTF-8 Plain Text
Duration : 3 h 16 min
Bit rate : 1 b/s
Count of elements : 27
Stream size : 1.56 KiB (0%)
Title : forced
Language : Russian
Default : Yes
Forced : No
Text #2
ID : 5
Format : UTF-8
Codec ID : S_TEXT/UTF8
Codec ID/Info : UTF-8 Plain Text
Duration : 3 h 8 min
Bit rate : 43 b/s
Count of elements : 1236
Stream size : 60.6 KiB (0%)
Title : full
Language : Russian
Default : No
Forced : No
Text #3
ID : 6
Format : UTF-8
Codec ID : S_TEXT/UTF8
Codec ID/Info : UTF-8 Plain Text
Duration : 3 h 8 min
Bit rate : 26 b/s
Count of elements : 1278
Stream size : 37.1 KiB (0%)
Language : English
Default : No
Forced : No
Menu
00: 00: 00.000 : : Opening - New York 1933
00: 03: 02.807 : : Vaudeville
00: 04: 20.802 : : Theater Closed
00: 06: 43.945 : : Denham\'s Screening
00: 10: 29.670 : : Defeat Is Always Momentary
00: 12: 33.210 : : A Fateful Meeting
00: 14: 18.399 : : A Woman Born to Play this Role
00: 17: 40.893 : : The Moving Picture Ship
00: 20: 25.849 : : An Early Departure
00: 24: 13.285 : : Jack\'s Quarters
00: 25: 55.637 : : Bruce Settles In
00: 26: 13.363 : : Jimmy\'s Story
00: 28: 00.637 : : Ann Meets Jack Driscoll
00: 30: 29.536 : : A Moustache for Bruce
00: 31: 07.448 : : We\'re Filming on an Island Now?
00: 33: 07.360 : : Filming a Classic Scene
00: 34: 14.510 : : Romance on the Venture
00: 36: 55.880 : : The Last Blank Space on the Map
00: 39: 45.674 : : A Long Sea Voyage
00: 41: 07.506 : : It\'s in the Sub-Text
00: 42: 31.715 : : A Change of Course
00: 43: 45.873 : : Skull Island
00: 52: 20.178 : : Expedition Ashore
00: 55: 49.929 : : The Inhabitants of Skull Island
01: 02: 07.265 : : Ann\'s Abduction
01: 07: 32.798 : : The Sacrifice
01: 12: 39.480 : : Rescue Party
01: 14: 14.658 : : Ceratops Attack
01: 16: 58.947 : : The Killing Ground
01: 20: 23.485 : : Discovering the Footprint
01: 22: 42.165 : : Brontosaurus Stampede
01: 29: 20.521 : : Playing Dead
01: 30: 16.577 : : The Party Is Divided
01: 32: 09.815 : : Ann Disarms Kong
01: 38: 55.346 : : The Swamp Journey
01: 44: 44.111 : : Encountering the Moa Bird
01: 46: 17.954 : : The Log Chasm
01: 50: 02.012 : : The T-Rex Battle
02: 01: 41.252 : : The Insect Pit
02: 09: 08.657 : : Beautiful
02: 13: 18.990 : : Denham\'s Plan
02: 15: 51.476 : : Jack Rescues Ann
02: 21: 36.029 : : Captured
02: 30: 16.507 : : Eighth Wonder of the World
02: 32: 11.705 : : Cry Havoc!
02: 34: 02.149 : : Carl Denham Presents Kong
02: 43: 14.784 : : Kong in New York
02: 47: 50.560 : : Reunited
02: 52: 23.875 : : Under Attack
02: 54: 05.268 : : The Empire State Building
02: 56: 23.989 : : Kong\'s Last Stand
03: 03: 57.484 : : It was Beauty Killed the Beast
03: 10: 36.049 : : End Credits
Рейтинг →
 (голосов: 1, оценка 3/5, голосовать можно 1 раз )

Другие торренты по теме:

  • Кинг Конг / King Kong (2005) BDRip [1080p] [Extended Cut] [hand made 60fps] скачать через торрент бесплатно
  • Кинг Конг / King Kong (2005) BDRip [H.264 / 1080p] [Theatrical Cut] скачать через торрент бесплатно
  • Кинг Конг / King Kong (2005) BDRip [H.264 / 720p] [Extended cut] скачать через торрент бесплатно
  • Кинг Конг / King Kong (2005) BDRip [H.264 / 1080p-LQ] [Extended Cut] скачать через торрент бесплатно
  • Кинг Конг / King Kong (2005) BDRip [H.264 / 720p] [Extended Cut]
  • Кинг Конг / King Kong (2005) BDRip [H.265 / 1080p] [Extended Cut]
  • Кинг Конг / King Kong (2005) HDTVRip [H.264 / 1080p] [Extended Cut] [Open Matte]
  • Кинг Конг: Остров черепа / Kong: Skull Island (2017) WEBRip [H.264 / 1080p] [Трейлер]


    • Комментарии (0):

      Информация

      Информация

        Посетители, находящиеся в группе Гости, не могут оставлять комментарии в данной новости.