Подписывайся на наш канал в Telegram https://t.me/torrentok и получи доступ к торрентам без ограничений!
.
Авторизация | Регистрация
torrent123.club


Темный рыцарь / The Dark Knight (2008) HybridRip [H.264] [IMAX] торрент скачать бесплатно

Дата: 1-07-2020, 05:01 | .torrent скачали: 0

Темный рыцарь / The Dark Knight (2008) HybridRip [H.264] [IMAX]Производство: США, Великобритания/Warner Bros., Legendary Entertainment
Жанр: Фантастика, Боевик, Триллер, Криминал, Драма
Режиссер: Кристофер Нолан

Актеры
Кристиан Бэйл, Хит Леджер, Аарон Экхарт, Мэгги Джилленхол, Гари Олдман, Майкл Кейн, Морган Фриман, Чин Хань, Нестор Карбонелл, Эрик Робертс

Описание

Бэтмен поднимает ставки в войне с криминалом. С помощью лейтенанта Джима Гордона и прокурора Харви Дента он намерен очистить улицы от преступности, отравляющей город. Сотрудничество оказывается эффективным, но скоро они обнаружат себя посреди хаоса, развязанного восходящим криминальным гением, известным испуганным горожанам под именем Джокер.

Возраст: 12+ (зрителям, достигшим 12 лет)
Рейтинг MPAA: PG-13 (детям до 13 лет просмотр нежелателен)
Продолжительность: 02: 32: 13
Качество видео: HybridRip
Перевод: Дублированный, многоголосый профессиональный
Субтитры: русские, английские
Видео: AVC/H.264, 1024x576, 23.976 fps, ~2800 Kbps
Аудио 1: AC3, 6 ch, 448 Kbps - Русский (DUB)
Аудио 2: AC3, 6 ch, 448 Kbps - Русский (MVO Кравец)
Аудио 3: AC3, 6 ch, 448 Kbps - Английский
General
Unique ID : 244238361748162279470037271514571790359 (0xB7BE98F236B0D667AAAE58EFAE42D817)
Complete name : D: Темный рыцарь (2008) IMAX.mkv
Format : Matroska
Format version : Version 4
File size : 4.41 GiB
Duration : 2 h 32 min
Overall bit rate : 4 145 kb/s
Movie name : Темный рыцарь/The Dark Knight (2008) (IMAX) - #LORDKILL#
Encoded date : UTC 2020-06-29 14: 13: 34
Writing application : mkvmerge v8.3.0 (\'Over the Horizon\') 32bit
Writing library : libebml v1.3.1 + libmatroska v1.4.2
Video
ID : 1
Format : AVC
Format/Info : Advanced Video Codec
Format profile : High@L4.1
Format settings : CABAC/11 Ref Frames
Format settings, CABAC : Yes
Format settings, Reference : 11 frames
Codec ID : V_MPEG4/ISO/AVC
Duration : 2 h 32 min
Bit rate : 2 800 kb/s
Width : 1 024 pixels
Height : 576 pixels
Display aspect ratio : 16: 9
Frame rate mode : Constant
Frame rate : 23.976 (24000/1001) FPS
Color space : YUV
Chroma subsampling : 4: 2: 0
Bit depth : 8 bits
Scan type : Progressive
Bits/(Pixel*Frame) : 0.198
Stream size : 2.98 GiB (68%)
Writing library : x264 core 159 r2991 1771b55
Encoding settings : cabac=1/ref=11/deblock=1: -2: -2/analyse=0x3: 0x133/me=umh/subme=10/psy=1/psy_rd=1.00: 0.20/mixed_ref=1/me_range=32/chroma_me=1/trellis=2/8x8dct=1/cqm=0/deadzone=21, 11/fast_pskip=0/chroma_qp_offset=-3/threads=12/lookahead_threads=3/sliced_threads=0/nr=0/decimate=1/interlaced=0/bluray_compat=0/constrained_intra=0/bframes=10/b_pyramid=2/b_adapt=2/b_bias=0/direct=3/weightb=1/open_gop=0/weightp=2/keyint=240/keyint_min=23/scenecut=40/intra_refresh=0/rc=2pass/mbtree=0/bitrate=2800/ratetol=1.0/qcomp=0.60/qpmin=0/qpmax=69/qpstep=4/cplxblur=20.0/qblur=0.5/ip_ratio=1.40/pb_ratio=1.30/aq=1: 1.00
Default : Yes
Forced : No
Audio #1
ID : 2
Format : AC-3
Format/Info : Audio Coding 3
Commercial name : Dolby Digital
Codec ID : A_AC3
Duration : 2 h 32 min
Bit rate mode : Constant
Bit rate : 448 kb/s
Channel(s) : 6 channels
Channel layout : L R C LFE Ls Rs
Sampling rate : 48.0 kHz
Frame rate : 31.250 FPS (1536 SPF)
Bit depth : 16 bits
Compression mode : Lossy
Stream size : 488 MiB (11%)
Title : DUB
Language : Russian
Service kind : Complete Main
Default : Yes
Forced : No
Audio #2
ID : 3
Format : AC-3
Format/Info : Audio Coding 3
Commercial name : Dolby Digital
Codec ID : A_AC3
Duration : 2 h 32 min
Bit rate mode : Constant
Bit rate : 448 kb/s
Channel(s) : 6 channels
Channel layout : L R C LFE Ls Rs
Sampling rate : 48.0 kHz
Frame rate : 31.250 FPS (1536 SPF)
Bit depth : 16 bits
Compression mode : Lossy
Stream size : 488 MiB (11%)
Title : MVO
Language : Russian
Service kind : Complete Main
Default : No
Forced : No
Audio #3
ID : 4
Format : AC-3
Format/Info : Audio Coding 3
Commercial name : Dolby Digital
Codec ID : A_AC3
Duration : 2 h 32 min
Bit rate mode : Constant
Bit rate : 448 kb/s
Channel(s) : 6 channels
Channel layout : L R C LFE Ls Rs
Sampling rate : 48.0 kHz
Frame rate : 31.250 FPS (1536 SPF)
Bit depth : 16 bits
Compression mode : Lossy
Stream size : 488 MiB (11%)
Language : English
Service kind : Complete Main
Default : No
Forced : No
Text #1
ID : 5
Format : UTF-8
Codec ID : S_TEXT/UTF8
Codec ID/Info : UTF-8 Plain Text
Duration : 2 h 30 min
Bit rate : 95 b/s
Count of elements : 1865
Stream size : 105 KiB (0%)
Title : Full 1
Language : Russian
Default : No
Forced : No
Text #2
ID : 6
Format : UTF-8
Codec ID : S_TEXT/UTF8
Codec ID/Info : UTF-8 Plain Text
Duration : 2 h 22 min
Bit rate : 106 b/s
Count of elements : 1793
Stream size : 111 KiB (0%)
Title : Full 2
Language : Russian
Default : No
Forced : No
Text #3
ID : 7
Format : UTF-8
Codec ID : S_TEXT/UTF8
Codec ID/Info : UTF-8 Plain Text
Duration : 2 h 22 min
Bit rate : 66 b/s
Count of elements : 1884
Stream size : 69.6 KiB (0%)
Language : English
Default : No
Forced : No
Рейтинг →
 (голосов: 1, оценка 4/5, голосовать можно 1 раз )

Другие торренты по теме:

  • Темный рыцарь: Возрождение 1.1.6 [Ru] скачать через торрент бесплатно
  • Темный рыцарь: Возрождение легенды / The Dark Knight Rises (2012) [H.264 / 720p] [IMAX Edition] [hand made 60fps] скачать через торрент бесплатно
  • Темный рыцарь: Возрождение легенды / The Dark Knight Rises (2012) HDRip [IMAX Edition] [AVO] скачать через торрент бесплатно
  • Темный рыцарь / The Dark Knight (2008) HDRip [IMAX Edition] [AVO]
  • Темный рыцарь: Возрождение легенды / The Dark Knight Rises (2012) BDRip [H.265 / 1080p-LQ]
  • Темный рыцарь / The Dark Knight (2008) BDRip [H.265 / 1080p-LQ]
  • Темный рыцарь: Возрождение легенды / The Dark Knight Rises (2012) BDRip [H.264] [IMAX Edition]
  • Темный рыцарь / The Dark Knight (2008) BDRip [H.264 / 1080p-LQ] [IMAX edition]


    • Комментарии (0):

      Информация

      Информация

        Посетители, находящиеся в группе Гости, не могут оставлять комментарии в данной новости.