Подписывайся на наш канал в Telegram https://t.me/torrentok и получи доступ к торрентам без ограничений!
.
Авторизация | Регистрация
torrent123.club
Торрент трекер | Скачать торрент | Скачать Через Торрент | Скачать торрент бесплатно | Скачать торрент без регистрации Другое торрент скачать Хоббит: Пустошь Смауга / The Hobbit: The Desolation of Smaug (2013) HybridRip [H.264] [Extended cut] [Open Matte] торрент скачать бесплатно


    Хоббит: Пустошь Смауга / The Hobbit: The Desolation of Smaug (2013) HybridRip [H.264] [Extended cut] [Open Matte] торрент скачать бесплатно

    Дата: 8-07-2020, 05:00 | .torrent скачали: 0

    Хоббит: Пустошь Смауга / The Hobbit: The Desolation of Smaug (2013) HybridRip [H.264] [Extended cut] [Open Matte]Производство: США, Новая Зеландия/Metro-Goldwyn-Mayer (MGM), New Line Cinema
    Жанр: фэнтези, приключения, боевик
    Режиссер: Питер Джексон

    Актеры
    Мартин Фриман, Иэн МакКеллен, Орландо Блум, Эванджелин Лилли, Бенедикт Камбербэтч, Люк Эванс, Элайджа Вуд, Иэн Холм, Кейт Бланшетт, Энди Серкис, Кристофер Ли, Ричард Армитедж, Ли Пейс, Стивен Фрай

    Описание

    Продолжение путешествия хоббита Бильбо Бэггинса, волшебника Гэндальфа и 13 отважных гномов. Их компания обязана завершить своё путешествие к Одинокой горе. Там они должны встретиться с величайшей опасностью из всех — созданием куда более ужасающим, чем все их прошлые противники, которое проверит на прочность не только их мужество, но крепость их дружбы и правильность выбранного пути, — драконом Смаугом.

    Возраст: 12+ (зрителям, достигшим 12 лет)
    Рейтинг MPAA: PG-13 (детям до 13 лет просмотр нежелателен)
    Продолжительность: 03: 06: 35
    Качество видео: HybridRip
    Перевод: Дублированный
    Субтитры: русские, английские
    Видео: AVC/H.264, 1024x576, 23.976 fps, ~2500 Kbps
    Аудио 1: AC3, 6 ch, 448 Kbps - Русский (DUB)
    Аудио 2: AC3, 6 ch, 448 Kbps - Английский
    General
    Unique ID : 183365223703475072379105448440195115898 (0x89F2DB85B55B75D09ABD215634FEEB7A)
    Complete name : D: Hobbit. Desolation of Smaug (2013) Hybrid Open Matte.mkv
    Format : Matroska
    Format version : Version 4
    File size : 4.43 GiB
    Duration : 3 h 6 min
    Overall bit rate : 3 398 kb/s
    Movie name : Хоббит: Пустошь Смауга/The Hobbit: The Desolation of Smaug (2013) (Extended) (Open Matte) - #LORDKILL#
    Encoded date : UTC 2020-07-06 18: 49: 56
    Writing application : mkvmerge v8.3.0 (\'Over the Horizon\') 32bit
    Writing library : libebml v1.3.1 + libmatroska v1.4.2
    Video
    ID : 1
    Format : AVC
    Format/Info : Advanced Video Codec
    Format profile : High@L4.1
    Format settings : CABAC/11 Ref Frames
    Format settings, CABAC : Yes
    Format settings, Reference : 11 frames
    Codec ID : V_MPEG4/ISO/AVC
    Duration : 3 h 6 min
    Bit rate : 2 500 kb/s
    Width : 1 024 pixels
    Height : 576 pixels
    Display aspect ratio : 16: 9
    Frame rate mode : Constant
    Frame rate : 23.976 (24000/1001) FPS
    Color space : YUV
    Chroma subsampling : 4: 2: 0
    Bit depth : 8 bits
    Scan type : Progressive
    Bits/(Pixel*Frame) : 0.177
    Stream size : 3.26 GiB (74%)
    Writing library : x264 core 159 r2991 1771b55
    Encoding settings : cabac=1/ref=11/deblock=1: -2: -2/analyse=0x3: 0x133/me=umh/subme=10/psy=1/psy_rd=1.00: 0.20/mixed_ref=1/me_range=32/chroma_me=1/trellis=2/8x8dct=1/cqm=0/deadzone=21, 11/fast_pskip=0/chroma_qp_offset=-3/threads=12/lookahead_threads=3/sliced_threads=0/nr=0/decimate=1/interlaced=0/bluray_compat=0/constrained_intra=0/bframes=10/b_pyramid=2/b_adapt=2/b_bias=0/direct=3/weightb=1/open_gop=0/weightp=2/keyint=240/keyint_min=23/scenecut=40/intra_refresh=0/rc=2pass/mbtree=0/bitrate=2500/ratetol=1.0/qcomp=0.60/qpmin=0/qpmax=69/qpstep=4/cplxblur=20.0/qblur=0.5/ip_ratio=1.40/pb_ratio=1.30/aq=1: 1.00
    Default : Yes
    Forced : No
    Audio #1
    ID : 2
    Format : AC-3
    Format/Info : Audio Coding 3
    Commercial name : Dolby Digital
    Codec ID : A_AC3
    Duration : 3 h 6 min
    Bit rate mode : Constant
    Bit rate : 448 kb/s
    Channel(s) : 6 channels
    Channel layout : L R C LFE Ls Rs
    Sampling rate : 48.0 kHz
    Frame rate : 31.250 FPS (1536 SPF)
    Bit depth : 16 bits
    Compression mode : Lossy
    Stream size : 598 MiB (13%)
    Title : DUB
    Language : Russian
    Service kind : Complete Main
    Default : Yes
    Forced : No
    Audio #2
    ID : 3
    Format : AC-3
    Format/Info : Audio Coding 3
    Commercial name : Dolby Digital
    Codec ID : A_AC3
    Duration : 3 h 6 min
    Bit rate mode : Constant
    Bit rate : 448 kb/s
    Channel(s) : 6 channels
    Channel layout : L R C LFE Ls Rs
    Sampling rate : 48.0 kHz
    Frame rate : 31.250 FPS (1536 SPF)
    Bit depth : 16 bits
    Compression mode : Lossy
    Stream size : 598 MiB (13%)
    Language : English
    Service kind : Complete Main
    Default : No
    Forced : No
    Text #1
    ID : 4
    Format : UTF-8
    Codec ID : S_TEXT/UTF8
    Codec ID/Info : UTF-8 Plain Text
    Duration : 3 h 4 min
    Bit rate : 2 b/s
    Count of elements : 96
    Stream size : 2.93 KiB (0%)
    Title : Forced
    Language : Russian
    Default : Yes
    Forced : No
    Text #2
    ID : 5
    Format : UTF-8
    Codec ID : S_TEXT/UTF8
    Codec ID/Info : UTF-8 Plain Text
    Duration : 3 h 5 min
    Bit rate : 49 b/s
    Count of elements : 2121
    Stream size : 67.5 KiB (0%)
    Title : Full
    Language : Russian
    Default : No
    Forced : No
    Text #3
    ID : 6
    Format : UTF-8
    Codec ID : S_TEXT/UTF8
    Codec ID/Info : UTF-8 Plain Text
    Duration : 2 h 54 min
    Bit rate : 38 b/s
    Count of elements : 2035
    Stream size : 48.7 KiB (0%)
    Language : English
    Default : No
    Forced : No
    Menu
    00: 00: 00.000 : : The Quest for Erebor
    00: 07: 33.411 : : Wilderland
    00: 12: 00.302 : : The Master Summons
    00: 12: 59.445 : : A Commander of Legions
    00: 15: 55.370 : : Queer Lodgings
    00: 20: 56.922 : : Last of the Skin-Changers
    00: 23: 15.434 : : Where the Shadow Lie
    00: 25: 52.675 : : The Elven-Gate
    00: 29: 59.255 : : Mirkwood
    00: 38: 14.041 : : Flies and Spiders
    00: 46: 43.842 : : The Woodland Realm
    00: 49: 46.315 : : The Elvenking
    00: 53: 19.528 : : King and captain
    00: 55: 10.222 : : Feast of Starlight
    00: 58: 07.858 : : Barrels Out of Bond
    01: 08: 42.326 : : The High Fells
    01: 12: 22.337 : : Bard the Bowman
    01: 15: 45.707 : : The Nature of Evil
    01: 19: 10.162 : : Smuggled Cargo
    01: 22: 46.836 : : Lake-Town
    01: 25: 09.686 : : The Master of Lake-Town
    01: 28: 07.738 : : The World of Men
    01: 31: 15.552 : : The Home of Bard
    01: 36: 02.756 : : It is Our Fight
    01: 37: 35.890 : : The Prophecy
    01: 40: 35.404 : : A Warm Welcome
    01: 45: 16.518 : : The Parting of the Company
    01: 48: 44.475 : : The Lonely Mountain
    01: 50: 31.750 : : A Spell of Concealment
    01: 52: 36.541 : : The Hidden Door
    01: 53: 08.448 : : Son of Thror
    01: 59: 16.356 : : On the Doorstep
    02: 07: 11.832 : : Kingsfoil
    02: 07: 39.109 : : The Courage of Hobbits
    02: 09: 22.671 : : The Enemy Revealed
    02: 12: 48.585 : : Inside Information
    02: 22: 00.843 : : The Black Arrow
    02: 22: 43.429 : : In the Dragon\'s Lair
    02: 23: 17.922 : : Under Arrest
    02: 24: 56.396 : : Bilbo the Burglar
    02: 26: 45.085 : : Smaug the Magnificent
    02: 29: 18.824 : : Orc Attack
    02: 33: 12.975 : : Confrontations
    02: 34: 57.620 : : Elvish Medicine
    02: 36: 13.155 : : Hunter and Hunted
    02: 37: 45.956 : : She Walks in Starlight
    02: 39: 08.829 : : A Desperate Plan
    02: 41: 39.940 : : Duel in Lake-Town
    02: 44: 06.002 : : The Forges Relit
    02: 51: 16.683 : : Smaug the Golden
    02: 56: 05.555 : : Credits
    Рейтинг →
     (голосов: 1, оценка 3/5, голосовать можно 1 раз )

    Другие торренты по теме:

  • Хоббит: Пустошь Смауга / The Hobbit: The Desolation of Smaug [Extended Cut] (2013) HDRip
  • Хоббит: Пустошь Смауга / The Hobbit: The Desolation of Smaug [Extended Cut] (2013) WEB-DLRip [H.264] скачать через торрент бесплатно
  • Хоббит: Пустошь Смауга / The Hobbit: The Desolation of Smaug (2013) BDRip [1080p] [Extended Cut] скачать через торрент бесплатно
  • Хоббит: Пустошь Смауга / The Hobbit: The Desolation of Smaug (2013) WEB-DL [720p] [Extended Cut] скачать через торрент бесплатно
  • Хоббит: Пустошь Смауга / The Hobbit: The Desolation of Smaug (2013) BDRemux [1080p] [Extended Cut] скачать через торрент бесплатно
  • Хоббит: Пустошь Смауга / The Hobbit: The Desolation of Smaug (2013) BDRip [Extended Cut] скачать через торрент бесплатно
  • Хоббит: Пустошь Смауга / The Hobbit: The Desolation of Smaug (2013) BDRip [Extended Cut] скачать через торрент бесплатно
  • Хоббит: Пустошь Смауга / The Hobbit: The Desolation of Smaug (2013) 2*Blu-Ray 3D [1080p] [Extended Cut] скачать через торрент бесплатно


    • Комментарии (0):

      Информация

      Информация

        Посетители, находящиеся в группе Гости, не могут оставлять комментарии в данной новости.