Подписывайся на наш канал в Telegram https://t.me/torrentok и получи доступ к торрентам без ограничений!
.
Авторизация | Регистрация
torrent123.club


Europe - Almost Unplugged (live) от ALEXnROCK (2008) WEBRip торрент скачать бесплатно

Дата: 13-07-2020, 05:01 | .torrent скачали: 0

Europe - Almost Unplugged (live) от ALEXnROCK (2008) WEBRipЖанр: Rock
Год выпуска: 2008

Описание

Клевый акустический концерт шведской группы. Звук с CD. Да пребудет с нами качественная музыка!. Все лучшее для вас. ALEXnROCK
Продолжительность: 01: 23: 47
Качество: WEBRip
Видео : XviD, 720x408, 3500 Kbps
Аудио : Mp3, 2 ch, 320 Kbps
Треклист:
1. Got To Have Faith
2. Forever Travelling
3. Devil Sings The Blues
4. Wish You Were Here (PINK FLOYD)
5. Dreamer
6. Love To Love (UFO)
7. The Final Countdown
8. Yesterday\'s News
9. Since I\'ve Been Lovin\' You (LED ZEPPELIN)
10. Hero
11. Suicide (THIN LIZZY)
12. Memories
13. Superstitious
14. Rock The Night
Общее
Полное имя Europe - Almost Unplugged ALEXnROCK.avi
Формат : AVI
Формат/Информация : Audio Video Interleave
Профиль формата : OpenDML
Размер файла : 2, 24 Гбайт
Продолжительность : 1 ч. 23 м.
Общий поток : 3834 Кбит/сек
Программа кодирования : VirtualDubMod 1.5.10.2 (build 2540/release)
Библиотека кодирования : VirtualDubMod build 2540/release
Видео
Идентификатор : 0
Формат : MPEG-4 Visual
Профиль формата : Advanced Simple@L5
Настройки формата : BVOP2
Параметр BVOP формата : 2
Параметр QPel формата : Нет
Параметр GMC формата : Без точки перехода
Параметр матрицы формата : Default (H.263)
Режим смешивания : Сжатый битовый поток
Идентификатор кодека : XVID
Идентификатор кодека/Подсказка : XviD
Продолжительность : 1 ч. 23 м.
Битрейт : 3500 Кбит/сек
Ширина : 720 пикселей
Высота : 400 пикселей
Соотношение сторон : 16: 9
Частота кадров : 30, 000 кадров/сек
Цветовое пространство : YUV
Субдискретизация насыщенности : 4: 2: 0
Битовая глубина : 8 бит
Тип развёртки : Прогрессивная
Метод сжатия : С потерями
Бит/(Пиксели*Кадры) : 0.405
Размер потока : 2, 05 Гбайт (91%)
Библиотека кодирования : XviD 1.2.1 (UTC 2008-12-04)
Аудио
Идентификатор : 1
Формат : MPEG Audio
Версия формата : Version 1
Профиль формата : Layer 3
Идентификатор кодека : 55
Идентификатор кодека/Подсказка : MP3
Продолжительность : 1 ч. 23 м.
Вид битрейта : Постоянный
Битрейт : 320 Кбит/сек
Каналы : 2 канала
Частота : 48, 0 КГц
Метод сжатия : С потерями
Размер потока : 192 Мбайт (8%)
Выравнивание : Соединение по промежуткам
Продолжительность промежутка : 33 мс. (1, 00 видеокадр)
Время предзагрузки промежутка : 504 мс.
Библиотека кодирования : LAME3.99r
Настройки программы : -m s -V 4 -q 2 -lowpass 20.5

Скриншоты для ознакомления



Все одноименные релизы в Клубе
Время раздачи: 247 (до появления первых 3-5 скачавших)
Рейтинг →
 (голосов: 1, оценка 4/5, голосовать можно 1 раз )

Другие торренты по теме:

  • Europe - Almost Unplugged (live) от ALEXnROCK (2008) WEBRip [H.264 / 1080p-LQ][upscale]


    • Комментарии (0):

      Информация

      Информация

        Посетители, находящиеся в группе Гости, не могут оставлять комментарии в данной новости.