Подписывайся на наш канал в Telegram https://t.me/torrentok и получи доступ к торрентам без ограничений!
.
Авторизация | Регистрация
torrent123.club


Прометей / Prometheus (2012) HybridRip [H.264] [Open Matte] торрент скачать бесплатно

Дата: 17-07-2020, 05:00 | .torrent скачали: 0

Прометей / Prometheus (2012) HybridRip [H.264] [Open Matte]Производство: США, Великобритания/20th Century Fox, Brandywine Productions, Dune Entertainment, Scott Free Productions
Жанр: ужасы, фантастика, триллер, приключения
Режиссер: Ридли Скотт

Актеры
Нуми Рапас, Майкл Фассбендер, Шарлиз Терон, Идрис Эльба, Гай Пирс, Логан Маршалл-Грин, Шон Харрис, Рейф Сполл, Иман Эллиотт, Бенедикт Вонг, Кейт Дики, Патрик Уилсон, Люси Хатчинсон

Описание

В поисках сакрального знания группа ученых отправляется в самые темные и неизведанные чертоги вселенной. Именно там, в отдаленных мирах, находясь на пределе своих умственных и физических возможностей, им предстоит вступить в безжалостную схватку за будущее всего человечества...

Возраст: 16+ (зрителям, достигшим 16 лет)
Рейтинг MPAA: R (лицам до 17 лет обязательно присутствие взрослого)
Продолжительность: 02: 03: 46
Качество видео: HybridRip
Перевод: Дублированный, многоголосый
Субтитры: Русские (форс., полные), английские
Видео: AVC/H.264, 1024x576, 23.976 fps, ~2800 Kbps
Аудио 1: AC3, 6 ch, 448 Kbps - Русский (DUB)
Аудио 2: AC3, 2 ch, 192 Kbps - Русский (MVO Первый канал)
Аудио 3: AC3, 6 ch, 448 Kbps - Английский
General
Unique ID : 231655225201593112651407759971810811981 (0xAE472C6A6D635D67A9CC3C211BB4204D)
Complete name : D: Prometheus (2012) Hybrid Open Matte.mkv
Format : Matroska
Format version : Version 4
File size : 3.38 GiB
Duration : 2 h 3 min
Overall bit rate : 3 904 kb/s
Movie name : Прометей/Prometheus (2012) (Open Matte) - #LORDKILL#
Encoded date : UTC 2020-07-15 17: 05: 15
Writing application : mkvmerge v8.3.0 (\'Over the Horizon\') 32bit
Writing library : libebml v1.3.1 + libmatroska v1.4.2
Video
ID : 1
Format : AVC
Format/Info : Advanced Video Codec
Format profile : High@L4.1
Format settings : CABAC/11 Ref Frames
Format settings, CABAC : Yes
Format settings, Reference : 11 frames
Codec ID : V_MPEG4/ISO/AVC
Duration : 2 h 3 min
Bit rate : 2 800 kb/s
Width : 1 024 pixels
Height : 576 pixels
Display aspect ratio : 16: 9
Frame rate mode : Constant
Frame rate : 23.976 (24000/1001) FPS
Color space : YUV
Chroma subsampling : 4: 2: 0
Bit depth : 8 bits
Scan type : Progressive
Bits/(Pixel*Frame) : 0.198
Stream size : 2.43 GiB (72%)
Writing library : x264 core 159 r2991 1771b55
Encoding settings : cabac=1/ref=11/deblock=1: -2: -2/analyse=0x3: 0x133/me=umh/subme=10/psy=1/psy_rd=1.00: 0.20/mixed_ref=1/me_range=32/chroma_me=1/trellis=2/8x8dct=1/cqm=0/deadzone=21, 11/fast_pskip=0/chroma_qp_offset=-3/threads=12/lookahead_threads=2/sliced_threads=0/nr=0/decimate=1/interlaced=0/bluray_compat=0/constrained_intra=0/bframes=9/b_pyramid=2/b_adapt=2/b_bias=0/direct=3/weightb=1/open_gop=0/weightp=2/keyint=240/keyint_min=23/scenecut=40/intra_refresh=0/rc=2pass/mbtree=0/bitrate=2800/ratetol=1.0/qcomp=0.60/qpmin=0/qpmax=69/qpstep=4/cplxblur=20.0/qblur=0.5/ip_ratio=1.40/pb_ratio=1.30/aq=1: 1.00
Default : Yes
Forced : No
Audio #1
ID : 2
Format : AC-3
Format/Info : Audio Coding 3
Commercial name : Dolby Digital
Codec ID : A_AC3
Duration : 2 h 3 min
Bit rate mode : Constant
Bit rate : 448 kb/s
Channel(s) : 6 channels
Channel layout : L R C LFE Ls Rs
Sampling rate : 48.0 kHz
Frame rate : 31.250 FPS (1536 SPF)
Bit depth : 16 bits
Compression mode : Lossy
Stream size : 396 MiB (11%)
Title : DUB
Language : Russian
Service kind : Complete Main
Default : Yes
Forced : No
Audio #2
ID : 3
Format : AC-3
Format/Info : Audio Coding 3
Commercial name : Dolby Digital
Codec ID : A_AC3
Duration : 2 h 3 min
Bit rate mode : Constant
Bit rate : 192 kb/s
Channel(s) : 2 channels
Channel layout : L R
Sampling rate : 48.0 kHz
Frame rate : 31.250 FPS (1536 SPF)
Bit depth : 16 bits
Compression mode : Lossy
Stream size : 170 MiB (5%)
Title : MVO Первый канал
Language : Russian
Service kind : Complete Main
Default : No
Forced : No
Audio #3
ID : 4
Format : AC-3
Format/Info : Audio Coding 3
Commercial name : Dolby Digital
Codec ID : A_AC3
Duration : 2 h 3 min
Bit rate mode : Constant
Bit rate : 448 kb/s
Channel(s) : 6 channels
Channel layout : L R C LFE Ls Rs
Sampling rate : 48.0 kHz
Frame rate : 31.250 FPS (1536 SPF)
Bit depth : 16 bits
Compression mode : Lossy
Stream size : 396 MiB (11%)
Language : English
Service kind : Complete Main
Default : No
Forced : No
Text #1
ID : 5
Format : UTF-8
Codec ID : S_TEXT/UTF8
Codec ID/Info : UTF-8 Plain Text
Duration : 4 min 26 s
Bit rate : 15 b/s
Count of elements : 10
Stream size : 514 Bytes (0%)
Title : Forced
Language : Russian
Default : No
Forced : No
Text #2
ID : 6
Format : UTF-8
Codec ID : S_TEXT/UTF8
Codec ID/Info : UTF-8 Plain Text
Duration : 1 h 51 min
Bit rate : 71 b/s
Count of elements : 1364
Stream size : 58.3 KiB (0%)
Title : Full 1
Language : Russian
Default : No
Forced : No
Text #3
ID : 7
Format : UTF-8
Codec ID : S_TEXT/UTF8
Codec ID/Info : UTF-8 Plain Text
Duration : 1 h 53 min
Bit rate : 63 b/s
Count of elements : 994
Stream size : 52.9 KiB (0%)
Title : Full 2
Language : Russian
Default : No
Forced : No
Text #4
ID : 8
Format : UTF-8
Codec ID : S_TEXT/UTF8
Codec ID/Info : UTF-8 Plain Text
Duration : 1 h 51 min
Bit rate : 43 b/s
Count of elements : 1408
Stream size : 35.8 KiB (0%)
Language : English
Default : No
Forced : No
Menu
00: 00: 00.000 : en: Chapter 1
00: 05: 13.146 : en: Chapter 2
00: 07: 44.881 : en: Chapter 3
00: 11: 31.524 : en: Chapter 4
00: 15: 09.784 : en: Chapter 5
00: 20: 04.912 : en: Chapter 6
00: 22: 32.810 : en: Chapter 7
00: 27: 43.120 : en: Chapter 8
00: 31: 57.833 : en: Chapter 9
00: 34: 10.840 : en: Chapter 10
00: 37: 53.229 : en: Chapter 11
00: 40: 45.360 : en: Chapter 12
00: 45: 49.330 : en: Chapter 13
00: 48: 47.925 : en: Chapter 14
00: 50: 23.062 : en: Chapter 15
00: 53: 56.400 : en: Chapter 16
00: 56: 32.222 : en: Chapter 17
00: 59: 31.610 : en: Chapter 18
01: 01: 29.185 : en: Chapter 19
01: 04: 17.562 : en: Chapter 20
01: 06: 01.457 : en: Chapter 21
01: 08: 57.884 : en: Chapter 22
01: 11: 13.519 : en: Chapter 23
01: 15: 10.631 : en: Chapter 24
01: 17: 06.038 : en: Chapter 25
01: 25: 02.306 : en: Chapter 26
01: 27: 09.349 : en: Chapter 27
01: 30: 10.363 : en: Chapter 28
01: 32: 43.725 : en: Chapter 29
01: 35: 23.134 : en: Chapter 30
01: 37: 46.861 : en: Chapter 31
01: 40: 46.374 : en: Chapter 32
01: 43: 46.220 : en: Chapter 33
01: 48: 28.794 : en: Chapter 34
01: 52: 08.096 : en: Chapter 35
01: 58: 06.288 : en: Chapter 36
Рейтинг →
 (голосов: 1, оценка 5/5, голосовать можно 1 раз )

Другие торренты по теме:

  • Marc Streitenfeld and Harry Gregson-Williams - Прометей / Prometheus (Expanded Original Motion Picture Score) (2012) [MP3|320 кб / с]<Soundtrack>
  • Прометей / Prometheus (2012) BDRip [H.264] скачать через торрент бесплатно
  • Прометей / Prometheus (2012) BDRip [720p] [hand made 60fps]
  • Прометей / Prometheus (2012) [2D / 3D] BDRemux [H.264 / 1080p] скачать через торрент бесплатно
  • Прометей / Prometheus (2012) HDRip [Extended Fan Cut] скачать через торрент бесплатно
  • Прометей / Prometheus (2012) BDRip [H.264 / 1080p] [Extended Fan Cut] скачать через торрент бесплатно
  • Прометей / Prometheus (2012) HDRip [H.264] [Extended Fan Cut] скачать через торрент бесплатно
  • Прометей / Prometheus (2012) Blu-ray [H.264 / 1080p] [Bonus Disk] [EN / RU, Sub] скачать через торрент бесплатно


    • Комментарии (0):

      Информация

      Информация

        Посетители, находящиеся в группе Гости, не могут оставлять комментарии в данной новости.