Подписывайся на наш канал в Telegram https://t.me/torrentok и получи доступ к торрентам без ограничений!
.
Авторизация | Регистрация
torrent123.club


Чужой: Завет / Alien: Covenant (2017) HybridRip [H.264] [Open Matte] торрент скачать бесплатно

Дата: 23-07-2020, 05:00 | .torrent скачали: 1

Чужой: Завет / Alien: Covenant (2017) HybridRip [H.264] [Open Matte]Производство: США, Великобритания/20th Century Fox Film Corporation, Brandywine Productions
Жанр: фантастика, триллер, ужасы
Режиссер: Ридли Скотт

Актеры
Майкл Фассбендер, Кэтрин Уотерстон, Билли Крадап, Дэнни МакБрайд, Демиан Бишир, Кармен Эджого, Джусси Смоллетт, Калли Эрнандес, Эми Саймец, Натаниель Дин

Описание

Во время обследования удаленной планеты, расположенной на другой стороне галактики, экипаж колониального корабля Завет обнаруживает, что то, что они изначально приняли за неизведанный рай, на самом деле — тёмный и опасный мир. Его единственный житель — синтетический андроид Дэвид, оставшийся в живых после обреченной экспедиционной миссии Прометей

Возраст: 18+ (зрителям, достигшим 18 лет. запрещено для детей)
Рейтинг MPAA: R (лицам до 17 лет обязательно присутствие взрослого)
Продолжительность: 02: 02: 03
Качество видео: HybridRip
Перевод: Дублированный
Субтитры: Русские (форс., полные), английские
Видео: AVC/H.264, 1024x576, 23.976 fps, ~2500 Kbps
Аудио 1: AC3, 6 ch, 448 Kbps - Русский (DUB)
Аудио 2: AC3, 6 ch, 448 Kbps - Английский
General
Unique ID : 209930491510164068780977226894445036543 (0x9DEF24590F27B0B383174ADE0F8AC3FF)
Complete name : D: Alien. Covenant (2017) Hybrid Open Matte.mkv
Format : Matroska
Format version : Version 4
File size : 2.90 GiB
Duration : 2 h 2 min
Overall bit rate : 3 396 kb/s
Movie name : Чужой. Завет/Alien. Covenant (2017) (Open Matte) - #LORDKILL#
Encoded date : UTC 2020-07-21 15: 57: 20
Writing application : mkvmerge v8.3.0 (\'Over the Horizon\') 32bit
Writing library : libebml v1.3.1 + libmatroska v1.4.2
Video
ID : 1
Format : AVC
Format/Info : Advanced Video Codec
Format profile : High@L4.1
Format settings : CABAC/11 Ref Frames
Format settings, CABAC : Yes
Format settings, Reference : 11 frames
Codec ID : V_MPEG4/ISO/AVC
Duration : 2 h 2 min
Bit rate : 2 500 kb/s
Width : 1 024 pixels
Height : 576 pixels
Display aspect ratio : 16: 9
Frame rate mode : Constant
Frame rate : 23.976 (24000/1001) FPS
Color space : YUV
Chroma subsampling : 4: 2: 0
Bit depth : 8 bits
Scan type : Progressive
Bits/(Pixel*Frame) : 0.177
Stream size : 2.13 GiB (74%)
Writing library : x264 core 159 r2991 1771b55
Encoding settings : cabac=1/ref=11/deblock=1: -2: -2/analyse=0x3: 0x133/me=umh/subme=10/psy=1/psy_rd=1.00: 0.20/mixed_ref=1/me_range=32/chroma_me=1/trellis=2/8x8dct=1/cqm=0/deadzone=21, 11/fast_pskip=0/chroma_qp_offset=-3/threads=12/lookahead_threads=2/sliced_threads=0/nr=0/decimate=1/interlaced=0/bluray_compat=0/constrained_intra=0/bframes=9/b_pyramid=2/b_adapt=2/b_bias=0/direct=3/weightb=1/open_gop=0/weightp=2/keyint=240/keyint_min=23/scenecut=40/intra_refresh=0/rc=2pass/mbtree=0/bitrate=2500/ratetol=1.0/qcomp=0.60/qpmin=0/qpmax=69/qpstep=4/cplxblur=20.0/qblur=0.5/ip_ratio=1.40/pb_ratio=1.30/aq=1: 1.00
Default : Yes
Forced : No
Audio #1
ID : 2
Format : AC-3
Format/Info : Audio Coding 3
Commercial name : Dolby Digital
Codec ID : A_AC3
Duration : 2 h 2 min
Bit rate mode : Constant
Bit rate : 448 kb/s
Channel(s) : 6 channels
Channel layout : L R C LFE Ls Rs
Sampling rate : 48.0 kHz
Frame rate : 31.250 FPS (1536 SPF)
Bit depth : 16 bits
Compression mode : Lossy
Stream size : 391 MiB (13%)
Title : DUB
Language : Russian
Service kind : Complete Main
Default : Yes
Forced : No
Audio #2
ID : 3
Format : AC-3
Format/Info : Audio Coding 3
Commercial name : Dolby Digital
Codec ID : A_AC3
Duration : 2 h 2 min
Bit rate mode : Constant
Bit rate : 448 kb/s
Channel(s) : 6 channels
Channel layout : L R C LFE Ls Rs
Sampling rate : 48.0 kHz
Frame rate : 31.250 FPS (1536 SPF)
Bit depth : 16 bits
Compression mode : Lossy
Stream size : 391 MiB (13%)
Language : English
Service kind : Complete Main
Default : No
Forced : No
Text #1
ID : 4
Format : UTF-8
Codec ID : S_TEXT/UTF8
Codec ID/Info : UTF-8 Plain Text
Duration : 1 h 45 min
Bit rate : 0 b/s
Count of elements : 11
Stream size : 341 Bytes (0%)
Title : Forced
Language : Russian
Default : Yes
Forced : No
Text #2
ID : 5
Format : UTF-8
Codec ID : S_TEXT/UTF8
Codec ID/Info : UTF-8 Plain Text
Duration : 1 h 54 min
Bit rate : 72 b/s
Count of elements : 1443
Stream size : 60.2 KiB (0%)
Title : Full 1
Language : Russian
Default : No
Forced : No
Text #3
ID : 6
Format : UTF-8
Codec ID : S_TEXT/UTF8
Codec ID/Info : UTF-8 Plain Text
Duration : 1 h 54 min
Bit rate : 69 b/s
Count of elements : 864
Stream size : 58.8 KiB (0%)
Title : Full 2
Language : Russian
Default : No
Forced : No
Text #4
ID : 7
Format : UTF-8
Codec ID : S_TEXT/UTF8
Codec ID/Info : UTF-8 Plain Text
Duration : 1 h 54 min
Bit rate : 44 b/s
Count of elements : 1451
Stream size : 36.8 KiB (0%)
Language : English
Default : No
Forced : No
Menu
00: 00: 00.000 : en: Chapter 1
00: 05: 31.333 : en: Chapter 2
00: 13: 07.495 : en: Chapter 3
00: 18: 11.924 : en: Chapter 4
00: 22: 46.448 : en: Chapter 5
00: 27: 51.169 : en: Chapter 6
00: 33: 12.907 : en: Chapter 7
00: 37: 18.736 : en: Chapter 8
00: 42: 19.912 : en: Chapter 9
00: 47: 43.694 : en: Chapter 10
00: 51: 59.700 : en: Chapter 11
00: 55: 56.269 : en: Chapter 12
01: 00: 17.447 : en: Chapter 13
01: 06: 20.643 : en: Chapter 14
01: 11: 25.030 : en: Chapter 15
01: 16: 35.882 : en: Chapter 16
01: 21: 57.621 : en: Chapter 17
01: 28: 18.793 : en: Chapter 18
01: 30: 28.298 : en: Chapter 19
01: 34: 52.436 : en: Chapter 20
01: 39: 23.666 : en: Chapter 21
01: 47: 26.815 : en: Chapter 22
01: 50: 49.309 : en: Chapter 23
01: 55: 27.754 : en: Chapter 24
Рейтинг →
 (голосов: 1, оценка 3/5, голосовать можно 1 раз )

Другие торренты по теме:

  • Alien: Covenant / Чужой: Завет (2017) WEBRip [H.264 / 1080p] [Трейлер]
  • Чужой: Завет / Alien: Covenant (2017) WEBRip [H.264 / 1080p] [Трейлер]
  • Чужой: Завет. Пролог: Связующее звено / Alien: Covenant. Prologue (2017) WEBRip [H.264 / 1080p] [Тизер]
  • Jed Kurzel - Alien: Covenant / Чужой: Завет (Original Soundtrack Album) (2017) [MP3|320 Kbps] <Score>
  • Jed Kurzel - Alien: Covenant / Чужой: Завет (Original Motion Picture Soundtrack) (2017) [FLAC|Lossless|WEB-DL|tracks]<Soundtrack>
  • Чужой: Завет / Alien: Covenant (2017) TS [H.264 / 720p-LQ] [AD]
  • Чужой:Завет / Alien:Covenant (2017) TS [AD]
  • Чужой: Завет / Alien: Covenant (2017) WEBRip [H.264 / 1080p-LQ] [Звук с TS] [AD]


    • Комментарии (0):

      Информация

      Информация

        Посетители, находящиеся в группе Гости, не могут оставлять комментарии в данной новости.