Подписывайся на наш канал в Telegram https://t.me/torrentok и получи доступ к торрентам без ограничений!
.
Авторизация | Регистрация
torrent123.club


Отступники / The Departed (2006) HybridRip [H.264 / 1080p-LQ] [Open Matte] торрент скачать бесплатно

Дата: 23-07-2020, 05:00 | .torrent скачали: 2

Отступники / The Departed (2006) HybridRip [H.264 / 1080p-LQ] [Open Matte]Производство: США/Warner Bros., Plan B Entertainment, Initial Entertainment Group (IEG)
Жанр: триллер, драма, криминал
Режиссер: Мартин Скорсезе

Актеры
Леонардо ДиКаприо, Мэтт Дэймон, Джек Николсон, Марк Уолберг, Мартин Шин, Рэй Уинстон, Вера Фармига, Энтони Андерсон, Алек Болдуин, Кевин Корригэн

Описание
Два лучших выпускника полицейской академии оказались по разные стороны баррикады: один из них — агент мафии в рядах правоохранительных органов, другой — крот, внедрённый в мафию. Каждый считает своим долгом обнаружить и уничтожить противника, но постоянная жизнь в искажённых реалиях меняет внутренний мир героев.

Возраст: 16+ (зрителям, достигшим 16 лет)
Рейтинг MPAA: R (лицам до 17 лет обязательно присутствие взрослого)
Релиз от: SergeyAms
Продолжительность: 02: 31: 25
Качество видео: HybridRip
Перевод: дублированный
Субтитры: Русские (полные), английские (полные)
Видео: AVC/H.264, 1920x1080, ~9 Mbps
Аудио #1: AC3, 6 ch, 640 Kbps - Русский (дубляж)
Аудио #2: AC3, 6 ch, 640 Kbps - Английский
x264 info: frame I: 2062 Avg QP: 16.73 size: 239551
x264 info: frame P: 43318 Avg QP: 19.38 size: 90822
x264 info: frame B: 172299 Avg QP: 20.74 size: 33562
Unique ID : 101174912696004180451101258636021293010 (0x4C1D945370BFD5AC8500D9BF18295FD2)
Complete name : D: TempNNMОтступники.2006.1080p.mkv
Format : Matroska
Format version : Version 4/Version 2
File size : 10.9 GiB
Duration : 2h 31mn
Overall bit rate : 10.3 Mbps
Movie name : The Departed (2006)
Writing library : Lavf57.71.100
Video
ID : 1
Format : AVC
Format/Info : Advanced Video Codec
Format profile : High@L4.1
Format settings, CABAC : Yes
Format settings, ReFrames : 4 frames
Codec ID : V_MPEG4/ISO/AVC
Duration : 2h 31mn
Bit rate : 9 000 Kbps
Width : 1 920 pixels
Height : 1 080 pixels
Display aspect ratio : 16: 9
Frame rate mode : Constant
Frame rate : 23.976 fps
Color space : YUV
Chroma subsampling : 4: 2: 0
Bit depth : 8 bits
Scan type : Progressive
Bits/(Pixel*Frame) : 0.181
Stream size : 9.30 GiB (86%)
Writing library : x264 core 157 r2935 545de2f
Encoding settings : cabac=1/ref=4/deblock=1: -3: -3/analyse=0x3: 0x113/me=umh/subme=11/psy=1/psy_rd=1.05: 0.10/mixed_ref=1/me_range=32/chroma_me=1/trellis=2/8x8dct=1/cqm=0/deadzone=21, 11/fast_pskip=0/chroma_qp_offset=-3/threads=13/lookahead_threads=2/sliced_threads=0/nr=0/decimate=0/interlaced=0/bluray_compat=0/constrained_intra=0/bframes=8/b_pyramid=2/b_adapt=2/b_bias=0/direct=1/weightb=1/open_gop=0/weightp=2/keyint=240/keyint_min=24/scenecut=40/intra_refresh=0/rc=2pass/mbtree=0/bitrate=9000/ratetol=1.0/qcomp=0.70/qpmin=3/qpmax=69/qpstep=4/cplxblur=20.0/qblur=0.5/ip_ratio=1.40/pb_ratio=1.30/aq=2: 1.00
Language : English
Default : Yes
Forced : No
Audio #1
ID : 2
Format : AC-3
Format/Info : Audio Coding 3
Mode extension : CM (complete main)
Format settings, Endianness : Big
Codec ID : A_AC3
Duration : 2h 31mn
Bit rate mode : Constant
Bit rate : 640 Kbps
Channel(s) : 6 channels
Channel positions : Front: L C R, Side: L R, LFE
Sampling rate : 48.0 KHz
Bit depth : 16 bits
Compression mode : Lossy
Stream size : 693 MiB (6%)
Title : Dub
Language : Russian
Default : Yes
Forced : No
Audio #2
ID : 3
Format : AC-3
Format/Info : Audio Coding 3
Mode extension : CM (complete main)
Format settings, Endianness : Big
Codec ID : A_AC3
Duration : 2h 31mn
Bit rate mode : Constant
Bit rate : 640 Kbps
Channel(s) : 6 channels
Channel positions : Front: L C R, Side: L R, LFE
Sampling rate : 48.0 KHz
Bit depth : 16 bits
Compression mode : Lossy
Stream size : 693 MiB (6%)
Title : Original
Language : English
Default : No
Forced : No
Text #1
ID : 4
Format : UTF-8
Codec ID : S_TEXT/UTF8
Codec ID/Info : UTF-8 Plain Text
Title : R5
Language : Russian
Default : Yes
Forced : No
Text #2
ID : 5
Format : UTF-8
Codec ID : S_TEXT/UTF8
Codec ID/Info : UTF-8 Plain Text
Title : English
Language : English
Default : No
Forced : No
Menu
00: 00: 00.000 : : Start
00: 05: 03.636 : : School\'s Out
00: 08: 52.532 : : You\'re No Cop
00: 14: 56.061 : : Serve the Commonwealth
00: 19: 11.817 : : He\'s Jackie\'s Nephew
00: 24: 02.274 : : Dignam Briefs the Girls
00: 26: 02.060 : : Tipped Off, Ticked Off
00: 30: 07.972 : : Impervious to Analysis
00: 32: 22.774 : : Necessary Torture
00: 37: 13.397 : : Two Guys From Providence
00: 42: 46.730 : : May I Remind You
00: 47: 28.178 : : Call Your Mother
00: 51: 23.747 : : How Billy Feels
00: 54: 50.954 : : Hang Tight for Me
00: 59: 44.080 : : Call the Game
01: 03: 09.786 : : No Tickee, No Laundry
01: 07: 46.228 : : Relationship Ups and Downs
01: 13: 04.213 : : If You Coulda
01: 14: 58.160 : : Protected and Benumbed
01: 19: 28.597 : : Real Vulnerability
01: 22: 45.293 : : Take Care of Business
01: 27: 23.738 : : Each Other\'s Trail
01: 30: 19.247 : : Heavy Lies the Crown
01: 36: 33.287 : : The One That Gets Out
01: 39: 31.632 : : Tail on Queenan
01: 43: 48.388 : : Taking the Fall
01: 47: 45.709 : : Wrong Number
01: 51: 53.039 : : Dead Guy\'s Phone
01: 56: 54.340 : : Nation of Rats
02: 00: 53.412 : : Sheffield Shootout
02: 03: 06.545 : : Getting Frank
02: 06: 03.556 : : Deleted
02: 10: 52.845 : : Play Me Now
02: 15: 19.111 : : Rats on a Rooftop
02: 18: 55.994 : : The Departed
02: 23: 19.090 : : Okay
02: 24: 45.677 : : End Credits
Гибрид получен путем автоматического совмещения HDTV Open Matte и BD с помощью AutoOverlay AviSynth plugin
Скриншоты для ознакомления



Все одноименные релизы в Клубе
Время раздачи: 24/7 (до появления первых 3-5 скачавших)
Рейтинг →
 (голосов: 1, оценка 4/5, голосовать можно 1 раз )

Другие торренты по теме:

  • Отступники / The Departed (2006) BDRip [1080p] ATV скачать через торрент бесплатно
  • Отступники / The Departed (2006) BDRip [576p] iPad скачать через торрент бесплатно
  • Отступники / The Departed (2006) BDRip [H.264 / 720p] скачать через торрент бесплатно
  • Отступники / The Departed (2006) BDRip [H.264 / 1080p] скачать через торрент бесплатно
  • Отступники / The Departed (2006) BDRip [H.265 / 1080p-LQ]
  • Отступники / The Departed (2006) BDRip [H.265 / 1080p] [10-bit] [FRA Transfer]


    • Комментарии (0):

      Информация

      Информация

        Посетители, находящиеся в группе Гости, не могут оставлять комментарии в данной новости.