Подписывайся на наш канал в Telegram https://t.me/torrentok и получи доступ к торрентам без ограничений!
.
Авторизация | Регистрация
torrent123.club


Невидимый страж / El guardian invisible (2017) WEBRip [MVO] [AD] торрент скачать бесплатно

Дата: 26-07-2020, 05:00 | .torrent скачали: 0

Невидимый страж / El guardian invisible (2017) WEBRip [MVO] [AD]Производство: Германия, Испания/Arte, Atresmedia Cine, Nadcon Film, Nostromo Pictures, Zweites Deutsches Fernsehen (ZDF)
Жанр: Триллер, криминал
Режиссер: Фернандо Гонзалез Молина

Актеры
Марта Этура, Эльвира Мингес, Нене, Франсеск Орелья, Itziar Aizpuru, Бенджамин Нортовер, Miren Gaztañaga, Idurre Puertas, Патриция Лопез, Микель Фернандес

Описание

Инспектор Амайя Салазар возглавляет расследование по поимке серийного убийцы в дождливом городе в самом сердце страны басков. В котором она родилась и куда надеялась никогда не возвращаться. Разрываясь между рациональной частью работы и местными мифами, Амайя должна побороть своих внутренних демонов, чтобы противостоять вполне реальному злу.Часть 1 в Базтанской трилогии .
Вся Базтанская трилогия

Продолжительность: 02: 10: 09
Качество видео: WEBRip
Перевод: Многоголосый закадровый, профессиональный (Синема УС)
Субтитры: Отсутствуют
Реклама: Присутствует несколько текстовых вставок.
Видео: XviD, 720x304, ~1438 Kbps
Аудио: AC-3, 2 ch, 128 Kbps
Общее
Полное имя : D: NNMНевидимый стражThe.Invisible.Guardian.2017.WEBRip.avi
Формат : AVI
Формат/Информация : Audio Video Interleave
Профиль формата : OpenDML
Размер файла : 1, 43 Гбайт
Продолжительность : 2 ч. 10 м.
Общий поток : 1578 Кбит/сек
Видео
Идентификатор : 0
Формат : MPEG-4 Visual
Профиль формата : Advanced Simple@L5
Настройки формата : BVOP2
Параметр BVOP формата : 2
Параметр QPel формата : Нет
Параметр GMC формата : Без точки перехода
Параметр матрицы формата : Default (MPEG)
Идентификатор кодека : XVID
Идентификатор кодека/Подсказка : XviD
Продолжительность : 2 ч. 10 м.
Битрейт : 1438 Кбит/сек
Ширина : 720 пикселей
Высота : 304 пикселя
Соотношение сторон : 2, 35: 1
Частота кадров : 24, 000 кадра/сек
Цветовое пространство : YUV
Субдискретизация насыщенности : 4: 2: 0
Битовая глубина : 1 бит
Тип развёртки : Прогрессивная
Метод сжатия : С потерями
Бит/(Пиксели*Кадры) : 0.274
Размер потока : 1, 31 Гбайт (91%)
Библиотека кодирования : XviD 1.2.1 (UTC 2008-12-04)
Аудио
Идентификатор : 1
Формат : AC-3
Формат/Информация : Audio Coding 3
Коммерческое название : Dolby Digital
Идентификатор кодека : 2000
Продолжительность : 2 ч. 10 м.
Вид битрейта : Постоянный
Битрейт : 128 Кбит/сек
Каналы : 2 канала
ChannelLayout : L R
Частота : 48, 0 КГц
Частота кадров : 31, 250 кадров/сек (1536 SPF)
Метод сжатия : С потерями
Размер потока : 119 Мбайт (8%)
Выравнивание : Соединение по промежуткам
Продолжительность промежутка : 32 мс. (0, 77 видеокадр)
ServiceKind/String : Complete Main

Скриншоты для ознакомления



Все одноименные релизы в Клубе Время раздачи: 24/7 (до первых 3-5 скачавших)
Рейтинг →
 (голосов: 1, оценка 4/5, голосовать можно 1 раз )

Другие торренты по теме:

  • Невидимый страж / El guardián invisible (2017) WEBRip [H.264 / 720p-LQ] [MVO] [AD]
  • Невидимый страж / El guardian invisible (2017) WEBRip [MVO] [AD]


    • Комментарии (0):

      Информация

      Информация

        Посетители, находящиеся в группе Гости, не могут оставлять комментарии в данной новости.